Кошачий глаз / Cat\'s Eye (Льюис Тиг / Lewis Teague) [1985, США, ужасы, триллер, экранизация, BDRip] DVO (НТВ+)

Reply to topic
DL-List and Torrent activity
Size:  1.37 GB   |    Registered:  4 years 3 months   |    Completed:  0 times

Seeder not seen: Never

 
   
 
 
Author Message

star21 ®

Gender: Female

Longevity: 4 years 4 months

Posts: 551945

Location: Екатеринбург

Post 30-Nov-2015 05:54

[Quote]

Кошачий глаз / Cat's Eye Страна: CША
Жанр: ужасы, триллер, экранизация
Год выпуска: 1985
Продолжительность: 01:34:37
Перевод: Профессиональный (двухголосый закадровый) НТВ+
Текст читали: Марина Тарасова, Александр Белый
Cубтитры: нет
Оригинальная аудиодорожка: нет
Режиссер: Льюис Тиг / Lewis Teague
В ролях: Дрю Бэрримор, Кеннет МакМиллэн, Роберт Хэйз, Джеймс Вудс, Алан Кинг, Кэнди Кларк, Джеймс Нотон, Тони Мунафо, Расселл Хортон, Джеймс Ребхорн, Шелли Берч, Сэл Ричардс, Джесси Доран, Патриция Кэлембер, Корт Миллер, Майк Старр, Чарльз С. Даттон
Описание: Экранизация произведений всемирно известного писателя Стивена Кинга. Фильм состоит из трёх новелл, каждая из которых имеет собственный сюжет, но всех их объединяет общий персонаж в виде бездомного короткошёрстного кота, тигрового табби, который перебегает от хозяина к хозяину. В одной из них мужчина обращается в компанию, отучающую людей от курения, но вскоре выясняет, что ее методы весьма экстремальны. Во втором рассказе эксцентричный миллионер заставляет инструктора по теннису, соблазнившего его жену, пройтись по узкому карнизу вокруг высотного здания. В третьем кот оказывается у маленькой девочки, к которой по ночам приходит жуткий гном.
Доп. информация: Собственный рип. Русская дорога из моей личной коллекции. Работа со звуком спасибо Dreven.
Сэмпл: http://multi-up.com/1064874
Качество видео: BDRip
Формат видео: AVI
Видео: XviD, 720x304 (2.35:1), 23.976 fps, 1874 kbps avg
Аудио: Russian AC3 Dolby Digital, 48 kHz, 2/0 (L,R) ch, 192.00 kbps avg

MediaInfo

eneral
Complete name : F:\Cats.Eye.1985\Cats.Eye.1985.BDRip.DVO.NTV+.avi
Format : AVI
Format/Info : Audio Video Interleave
File size : 1.37 GiB
Duration : 1h 34mn
Overall bit rate : 2 075 Kbps
Writing application : VirtualDubModRus 1.5.10.2 (build 2542/release)
Writing library : VirtualDubMod build 2542/release
Video
ID : 0
Format : MPEG-4 Visual
Format profile : Advanced Simple@L5
Format settings, BVOP : 1
Format settings, QPel : No
Format settings, GMC : No warppoints
Format settings, Matrix : Default (MPEG)
Codec ID : XVID
Codec ID/Hint : XviD
Duration : 1h 34mn
Bit rate : 1 874 Kbps
Width : 720 pixels
Height : 304 pixels
Display aspect ratio : 2.35:1
Frame rate : 23.976 fps
Color space : YUV
Chroma subsampling : 4:2:0
Bit depth : 8 bits
Scan type : Progressive
Compression mode : Lossy
Bits/(Pixel*Frame) : 0.357
Stream size : 1.24 GiB (90%)
Writing library : XviD 73
Audio
ID : 1
Format : AC-3
Format/Info : Audio Coding 3
Mode extension : CM (complete main)
Format settings, Endianness : Big
Codec ID : 2000
Duration : 1h 34mn
Bit rate mode : Constant
Bit rate : 192 Kbps
Channel(s) : 2 channels
Channel positions : Front: L R
Sampling rate : 48.0 KHz
Compression mode : Lossy
Stream size : 130 MiB (9%)
Alignment : Split accross interleaves
Interleave, duration : 42 ms (1.00 video frame)
Interleave, preload duratio : 500 ms

Скриншоты

To download the content you need:
1. Download and install torrent client [for Windows] or for mobile system
2. Click on [Download]
Attention.
If the test YOU are NOT a ROBOT - does not work, then You are using an outdated browser.
Install the current browser and click on [Download]

Do not work with Yandex browser. Uploading files to them is erroneous.
Security: torrent client is allowed by Kaspersky.

[en.asmlocator.ru].t4282.torrent 
Torrent: Registered [ 2015-11-30 05:45 ] · 2147CBDB66E841E1142886635F298C4FD500393E

Download .torrent

Download

14 KB

Status: checked
Completed: 0 times
Size: 1.37 GB
terms.php
[Profile] [PM]
Display posts:    
Reply to topic

Current time is: 30-Mar 00:54

All times are UTC ± 0



You cannot post new topics in this forum
You cannot reply to topics in this forum
You cannot edit your posts in this forum
You cannot delete your posts in this forum
You cannot vote in polls in this forum
You cannot attach files in this forum
You can download files in this forum
Верим фактам, а не вранью Путина! Факт, что Правительство ведёт Россию к истреблению.
Так как численность населения падает, даже не смотря на приток эмигрантов!
Русская нация вымирает и вырождается, смешиваясь с эмигрантами!
Факт, что военных и граждан предприятий заставляют голосовать за партию Единая Россия и Путина
ПОД СТРАХОМ УВОЛЬНЕНИЯ!
Нам не нужно Правительство, блокирующее личную жизнь, интернет, нарушающее сохранность данных.
Все эти действия финансируются за счёт народа!