Маленькие Монстры / Little Monsters (Ричард Гринберг / Richard Greenberg) [1989, США, фэнтези, приключения, комедия, семейный, DVDRip] AVO (Сергей Визгунов)

Reply to topic
DL-List and Torrent activity
Size:  1.37 GB   |    Registered:  4 years 4 months   |    Completed:  0 times

Seeder not seen: Never

 
   
 
 
Author Message

star21 ®

Gender: Female

Longevity: 4 years 4 months

Posts: 551945

Location: Екатеринбург

Post 30-Nov-2015 05:54

[Quote]

Маленькие Монстры / Little Monsters-Монстры могут быть настоящими друзьями, а друзья - настоящими монстрами.
От продюсера "Хищника" и дизайнера спецэффектов "Битлджюса".
- Год выпуска: 1989
Страна: США
Жанр: фэнтези, приключения, комедия, семейный
Продолжительность: 01:41:54
Перевод: Авторский (одноголосый закадровый) - Сергей Визгунов
Cубтитры: нет
Режиссер: Ричард Гринберг / Richard Greenberg
В ролях: Фред Сэвэдж (Brian Stevenson), Хоуи Мэндел (Maurice), Дэниел Стерн (Glen Stevenson), Маргарет Уиттон (Holly Stevenson), Рик Дукомман (Snik), Фрэнк Уэйли (Boy), Бен Сэвидж (Eric), Уильям Мюррэй Уайсс (Todd), Девин Рэтрей (Ronnie Coleman), Эмбер Баретто (Kiersten)-Мировая премьера: 25 августа 1989-Описание: Брайен, которого папа и мама все время винят во всех домашних неприятностях, в конце концов обнаруживает источник своих проблем, скрывающийся под его кроватью — это совершенно хипповый и крайне хвастливый монстр Морис. Он вводит Брайена в подпольный мир хитрющих монстров, наводящих беспорядок у спящих, ничего не подозревающих детей.-Благодарности:
- .
- собственная оцифровка Визгунова со своей лицензионной видеокассеты от видео-компании Екатеринбург Арт.
- синхронизация перевода.-Данный перевод на трекере появляется впервые.-Рейтинг

MPAA: PG - Рекомендуется присутствие родителей.-Качество видео: DVDRip
Формат видео: AVI -> //SAMPLE//
Видео: XviD, 720x544 (4:3), 23.976 fps, 1722 kbps avg
Аудио:
1 - 48 khz, AC3 Dolby Digital, 2/0 (L,R) ch, ~192 kbps [Визгунов] VHSRip

MediaInfo

General
Complete name : E:\Торрент Файлы\Будущие Релизы на Трекере\1.35 - 1.46 и более гб\Маленькие Монстры (Визгунов-ЕА).avi
Format : AVI
Format/Info : Audio Video Interleave
File size : 1.37 GiB
Duration : 1h 41mn
Overall bit rate : 1 924 Kbps
Writing application : VirtualDubMod 1.5.10.3 | www.virtualdub-fr.org || (build 2550/release)
Writing library : VirtualDubMod build 2550/release
Video
ID : 0
Format : MPEG-4 Visual
Format profile : Advanced Simple@L5
Format settings, BVOP : 1
Format settings, QPel : No
Format settings, GMC : No warppoints
Format settings, Matrix : Custom
Codec ID : XVID
Codec ID/Hint : XviD
Duration : 1h 41mn
Bit rate : 1 722 Kbps
Width : 720 pixels
Height : 544 pixels
Display aspect ratio : 4:3
Frame rate : 23.976 fps
Color space : YUV
Chroma subsampling : 4:2:0
Bit depth : 8 bits
Scan type : Progressive
Compression mode : Lossy
Bits/(Pixel*Frame) : 0.183
Stream size : 1.23 GiB (90%)
Writing library : XviD 1.2.0.dev47 (UTC 2006-11-01)
Audio
ID : 1
Format : AC-3
Format/Info : Audio Coding 3
Mode extension : CM (complete main)
Format settings, Endianness : Big
Codec ID : 2000
Duration : 1h 41mn
Bit rate mode : Constant
Bit rate : 192 Kbps
Channel(s) : 2 channels
Channel positions : Front: L R
Sampling rate : 48.0 KHz
Compression mode : Lossy
Stream size : 140 MiB (10%)
Alignment : Split accross interleaves
Interleave, duration : 42 ms (1.00 video frame)
Interleave, preload duratio : 500 ms

Скриншот c названием фильма

Скриншоты

To download the content you need:
1. Download and install torrent client [for Windows] or for mobile system
2. Click on [Download]
Attention.
If the test YOU are NOT a ROBOT - does not work, then You are using an outdated browser.
Install the current browser and click on [Download]

Do not work with Yandex browser. Uploading files to them is erroneous.
Security: torrent client is allowed by Kaspersky.

[en.asmlocator.ru].t4279.torrent 
Torrent: Registered [ 2015-11-30 05:45 ] · EF32ABC2A6E82A6BB98AAEED14206E7C9AD10B00

Download .torrent

Download

14 KB

Status: checked
Completed: 0 times
Size: 1.37 GB
terms.php
[Profile] [PM]
Display posts:    
Reply to topic

Current time is: 03-Apr 03:24

All times are UTC ± 0



You cannot post new topics in this forum
You cannot reply to topics in this forum
You cannot edit your posts in this forum
You cannot delete your posts in this forum
You cannot vote in polls in this forum
You cannot attach files in this forum
You can download files in this forum
Верим фактам, а не вранью Путина! Факт, что Правительство ведёт Россию к истреблению.
Так как численность населения падает, даже не смотря на приток эмигрантов!
Русская нация вымирает и вырождается, смешиваясь с эмигрантами!
Факт, что военных и граждан предприятий заставляют голосовать за партию Единая Россия и Путина
ПОД СТРАХОМ УВОЛЬНЕНИЯ!
Нам не нужно Правительство, блокирующее личную жизнь, интернет, нарушающее сохранность данных.
Все эти действия финансируются за счёт народа!