Кошмар на улице Вязов 5: Дитя сна / A Nightmare on Elm Street: The Dream Child (Стивен Хопкинс / Stephen Hopkins) [1989, США, ужасы, триллер, DVDRip-AVC] [Fullscreen] MVO (Позитив-Мультимедиа) + Original (Eng)

Reply to topic
DL-List and Torrent activity
Size:  2.18 GB   |    Registered:  4 years 4 months   |    Completed:  0 times

Seeder not seen: 2 years 7 months

 
   
 
 
Author Message

star21 ®

Gender: Female

Longevity: 4 years 4 months

Posts: 551945

Location: Екатеринбург

Post 30-Nov-2015 05:54

[Quote]

Кошмар на улице Вязов 5: Дитя сна / A Nightmare on Elm Street: The Dream Child
Год выпуска: 1989
Страна: США
Жанр: ужасы, триллер
Продолжительность: 01:29:38
Перевод: профессиональный многоголосый закадровый (Позитив-Мультимедиа)
Оригинальная аудиодорожка: английская
Режиссёр: Стивен Хопкинс /Stephen Hopkins/
В ролях: Роберт Инглунд /Robert Englund/, Лиза Уилкокс /Lisa Wilcox/, Келли Джо Минтер /Kelly Jo Minter/, Дэнни Хэссел /Danny Hassel/, Эрика Андерсон /Erika Anderson/, Николас Меле /Nicholas Mele/, Джо Сили /Joe Seely/, Вэлори Армстронг /Valorie Armstrong/, Барр ДеБеннинг /Burr DeBenning/, Кларенс Фелдер /Clarence Felder/
Описание:
Неистребимый детоубийца, который в пятой части даже объявляет себя Супер-Фредди, исхитряется возродиться в ребенке, находящемся в утробе матери. Единственный шанс спасти ребенка — найти незахороненный труп монашки Аманды Крюгер, породившей на свет такое чудовище как Фредди, чтобы его уничтожить.
Дополнительная информация:
[imdb]http://www.imdb.com/title/tt0097981[/imdb]: 5.1/10 (26,802 votes)
Рейтинг фильма КиноПоиск.Ru→: 6.251 (7 936 голосов)
Качество: DVDRip-AVC
Контейнер: MKV
Видеопоток: 718x480@718x540, 23.976 fps, x264 ~2590 kbps
Аудиопоток №1 (RUS): DD 5.1, 48 kHz, 448 kbps | профессиональный многоголосый закадровый (Позитив-Мультимедиа)
Аудиопоток №2 (ENG): DD 5.1, 48 kHz, 448 kbps
Сэмпл: Яндекс.Диск→, multi-up→, sendspace→

x264 Log

x264 [info]: frame I:869   Avg QP:15.00  size: 50542
x264 [info]: frame P:26814 Avg QP:17.10  size: 25427
x264 [info]: frame B:101260 Avg QP:19.83  size: 10020
x264 [info]: consecutive B-frames:  1.5%  1.9%  8.5% 16.7% 13.2% 51.2%  2.3%  1.7%  0.9%  0.6%  0.3%  0.3%  0.2%  0.2%  0.1%  0.1%  0.3%
encoded 128943 frames, 12.20 fps, 2588.83 kb/s

MediaInfo

General
Unique ID                                : 211685860775908826926860802961369435990 (0x9F4136BC1117329C92B8C41DBDFF8F56)
Complete name                            : A.Nightmare.on.Elm.Street.The.Dream.Child.1989.DVDRip.x264.DD-d0ber.mkv
Format                                   : Matroska
Format version                           : Version 4 / Version 2
File size                                : 2.18 GiB
Duration                                 : 1h 29mn
Overall bit rate                         : 3 486 Kbps
Movie name                               : A Nightmare on Elm Street: The Dream Child (1989) DVDRip by d0ber.maNN
Encoded date                             : UTC 2015-09-04 02:02:37
Writing application                      : mkvmerge v7.8.0 ('River Man') 64bit built on Mar 27 2015 16:31:37
Writing library                          : libebml v1.3.1 + libmatroska v1.4.2
DURATION                                 : 01:29:39.968000000
NUMBER_OF_FRAMES                         : 168124
NUMBER_OF_BYTES                          : 301278208
_STATISTICS_WRITING_APP                  : mkvmerge v7.8.0 ('River Man') 64bit built on Mar 27 2015 16:31:37
_STATISTICS_WRITING_DATE_UTC             : 2015-09-04 02:02:37
_STATISTICS_TAGS                         : BPS DURATION NUMBER_OF_FRAMES NUMBER_OF_BYTES
Video
ID                                       : 1
Format                                   : AVC
Format/Info                              : Advanced Video Codec
Format profile                           : High@L4.1
Format settings, CABAC                   : Yes
Format settings, ReFrames                : 16 frames
Codec ID                                 : V_MPEG4/ISO/AVC
Duration                                 : 1h 29mn
Bit rate                                 : 2 590 Kbps
Width                                    : 718 pixels
Height                                   : 480 pixels
Display aspect ratio                     : 4:3
Frame rate mode                          : Constant
Frame rate                               : 23.976 fps
Color space                              : YUV
Chroma subsampling                       : 4:2:0
Bit depth                                : 8 bits
Scan type                                : Progressive
Bits/(Pixel*Frame)                       : 0.313
Stream size                              : 1.58 GiB (72%)
Title                                    : 718x480@714x540, 23.976 fps, x264 ~2590 kbps
Writing library                          : x264 core 148 r2597 e86f3a1
Encoding settings                        : cabac=1 / ref=16 / deblock=1:-3:-3 / analyse=0x3:0x133 / me=umh / subme=10 / psy=1 / psy_rd=1.00:0.00 / mixed_ref=1 / me_range=64 / chroma_me=1 / trellis=2 / 8x8dct=1 / cqm=0 / deadzone=21,11 / fast_pskip=0 / chroma_qp_offset=-2 / threads=6 / lookahead_threads=1 / sliced_threads=0 / nr=0 / decimate=1 / interlaced=0 / bluray_compat=0 / constrained_intra=0 / bframes=16 / b_pyramid=2 / b_adapt=2 / b_bias=0 / direct=3 / weightb=1 / open_gop=0 / weightp=2 / keyint=240 / keyint_min=23 / scenecut=40 / intra_refresh=0 / rc_lookahead=240 / rc=2pass / mbtree=0 / bitrate=2590 / ratetol=1.0 / qcomp=0.75 / qpmin=0 / qpmax=69 / qpstep=4 / cplxblur=20.0 / qblur=0.5 / vbv_maxrate=62500 / vbv_bufsize=78125 / nal_hrd=none / filler=0 / ip_ratio=1.40 / pb_ratio=1.30 / aq=1:0.80
Language                                 : English
Default                                  : Yes
Forced                                   : No
Audio #1
ID                                       : 2
Format                                   : AC-3
Format/Info                              : Audio Coding 3
Mode extension                           : CM (complete main)
Format settings, Endianness              : Big
Codec ID                                 : A_AC3
Duration                                 : 1h 29mn
Bit rate mode                            : Constant
Bit rate                                 : 448 Kbps
Channel(s)                               : 6 channels
Channel positions                        : Front: L C R, Side: L R, LFE
Sampling rate                            : 48.0 KHz
Bit depth                                : 16 bits
Compression mode                         : Lossy
Stream size                              : 287 MiB (13%)
Title                                    : RUS MVO Позитив-Мультимедиа DD 5.1, 48 kHz, 448 kbps
Language                                 : Russian
Default                                  : Yes
Forced                                   : No
Audio #2
ID                                       : 3
Format                                   : AC-3
Format/Info                              : Audio Coding 3
Mode extension                           : CM (complete main)
Format settings, Endianness              : Big
Codec ID                                 : A_AC3
Duration                                 : 1h 29mn
Bit rate mode                            : Constant
Bit rate                                 : 448 Kbps
Channel(s)                               : 6 channels
Channel positions                        : Front: L C R, Side: L R, LFE
Sampling rate                            : 48.0 KHz
Bit depth                                : 16 bits
Compression mode                         : Lossy
Stream size                              : 287 MiB (13%)
Title                                    : ENG DD 5.1, 48 kHz, 448 kbps
Language                                 : English
Default                                  : No
Forced                                   : No

Скриншоты


Source vs. Rip


Fullscreen vs. Widescreen


-

To download the content you need:
1. Download and install torrent client [for Windows] or for mobile system
2. Click on [Download]
Attention.
If the test YOU are NOT a ROBOT - does not work, then You are using an outdated browser.
Install the current browser and click on [Download]

Do not work with Yandex browser. Uploading files to them is erroneous.
Security: torrent client is allowed by Kaspersky.

[en.asmlocator.ru].t4276.torrent 
Torrent: Registered [ 2015-11-30 05:45 ] · D77A000A09B7C7D57B88859A74383CBBF6982F27

Download .torrent

Download

11 KB

Status: checked
Completed: 0 times
Size: 2.18 GB
terms.php
[Profile] [PM]
Display posts:    
Reply to topic

Current time is: 03-Apr 11:33

All times are UTC ± 0



You cannot post new topics in this forum
You cannot reply to topics in this forum
You cannot edit your posts in this forum
You cannot delete your posts in this forum
You cannot vote in polls in this forum
You cannot attach files in this forum
You can download files in this forum
Верим фактам, а не вранью Путина! Факт, что Правительство ведёт Россию к истреблению.
Так как численность населения падает, даже не смотря на приток эмигрантов!
Русская нация вымирает и вырождается, смешиваясь с эмигрантами!
Факт, что военных и граждан предприятий заставляют голосовать за партию Единая Россия и Путина
ПОД СТРАХОМ УВОЛЬНЕНИЯ!
Нам не нужно Правительство, блокирующее личную жизнь, интернет, нарушающее сохранность данных.
Все эти действия финансируются за счёт народа!