Король Нью-Йорка / King of New York (Абель Феррара / Abel Ferrara) [1990, Италия, США, Великобритания, триллер, криминал, BDRip] DVO (НТВ) + DVO (Екатеринбург Арт) + AVO (Прямостанов)

Reply to topic
DL-List and Torrent activity
Size:  1.56 GB   |    Registered:  4 years 4 months   |    Completed:  0 times

Seeder not seen: Never

 
   
 
 
Author Message

star21 ®

Gender: Female

Longevity: 4 years 5 months

Posts: 551945

Location: Екатеринбург

Post 30-Nov-2015 05:54

[Quote]

Король Нью-Йорка / King of New York-В тот момент, когда заканчивается "ЛИЦО СО ШРАМОМ", начинается "КОРОЛЬ НЬЮ-ЙОРКА".
- Год выпуска: 1990
Страна: Италия, США, Великобритания
Жанр: триллер, криминал
Продолжительность: 01:43:11
Перевод: Профессиональный (двухголосый закадровый) - НТВ
Перевод 2: Профессиональный (двухголосый закадровый) - Екатеринбург Арт
Перевод 3: Авторский (одноголосый закадровый) - Павел Прямостанов
Cубтитры: нет
Режиссер: Абель Феррара / Abel Ferrara
В ролях: Кристофер Уокен (Frank White), Дэвид Карузо (Dennis Gilley), Лоуренс Фишборн (Jimmy Jump), Виктор Арго (Roy Bishop), Уэсли Снайпс (Thomas Flanigan), Джанет Джулиан (Jennifer), Джои Чин (Larry Wong), Джанкарло Эспозито (Lance), Пол Кальдерон (Joey Dalesio), Стив Бушеми (Test Tube)-Мировая премьера: 18 июля 1990-Описание: Выйдя из тюрьмы, гангстер Фрэнк Уайт объявляет, что берет под свой контроль всю торговлю наркотиками в Нью-Йорке и уничтожит всех, кто встанет на его пути. Нью-Йорк становится ареной кровавых разборок за рынок сбыта наркотиков стоимостью более чем в миллиард долларов. Фрэнк и его банда, состоящая в основном из черных, методично уничтожает боссов колумбийских, итальянских и китайских группировок. В своей штаб-квартире в роскошных апартаментах отеля Плаза под защитой двух прелестных телохранительниц Фрэнк провозглашает себя королем Нью-Йорка. Полиция, неспособная справиться с Фрэнком, объявляет ему настоящую войну…-Благодарности:
- .
- собственная запись перевода с телеканала НТВ в конце 90-х годов через видеомагнитофон и оцифровка с видеокассеты.
- собственная оцифровка перевода со своей лицензионной видеокассеты от видео-компании Екатеринбург Арт.
- собственная оцифровка Прямостанова со своей видеокассеты.
- синхронизация переводов.-Перевод НТВ на трекере появляется впервые.
Переводы Екатеринбург Арт и Прямостанов на трекере уже есть, но качество звука у Прямостанова в моём релизе намного лучше (на трекере звук с повышением тона) + перевод ЕА в моей раздаче двухголосый, на трекере многоголосый и с совершенно другими голосами.
Сравнение переводов в сэмпле: мои переводы № 2 и 4, переводы - № 3 и 5
.-На русский язык фильм озвучен телекомпанией НТВ.
Текст читают Юрий Петров и Наталья Казначеева.
На русский язык фильм подготовлен к показу студией "Ракурс" по заказу компании Екатеринбург Арт Home Video.
Текст читают Дмитрий Полонский и Нина Тобилевич.-Рейтинг

MPAA: R - Лицам до 17 лет обязательно присутствие взрослого.-Качество видео: BDRip
Формат видео: AVI -> //СЭМПЛ//
Видео: XviD, 720x400 (16:9), 23.976 fps, 1573 kbps avg
Аудио:
1 - 48 khz, AC3 Dolby Digital, 2/0 (L,R) ch, ~192 kbps [НТВ] VHSRip
2 - 48 khz, AC3 Dolby Digital, 2/0 (L,R) ch, ~192 kbps [Екатеринбург Арт] VHSRip
3 - 48 khz, AC3 Dolby Digital, 2/0 (L,R) ch, ~192 kbps [Прямостанов] VHSRip отдельным файлом-Обновление релиза от 04.09.2015. Причина:
Добавлены в релиз ещё два перевода: двухголосый с лицензионной видеокассеты от Екатеринбург Арт и авторский одноголосый от Прямостанова.
Просьба перескачать торрент!

MediaInfo

General
Complete name : D:\Релизы на Трекере\Король Нью-Йорка (НТВ + Original Eng).avi
Format : AVI
Format/Info : Audio Video Interleave
File size : 1.42 GiB
Duration : 1h 43mn
Overall bit rate : 1 971 Kbps
Movie name : koroli mvo
Director : Шкод@
Writing application : VirtualDubMod 1.5.10.3 | www.virtualdub-fr.org || (build 2550/release)
Writing library : VirtualDubMod build 2550/release
Copyright :
Comment : Groop All Films
Video
ID : 0
Format : MPEG-4 Visual
Format profile : Advanced Simple@L5
Format settings, BVOP : 1
Format settings, QPel : No
Format settings, GMC : No warppoints
Format settings, Matrix : Default (MPEG)
Codec ID : XVID
Codec ID/Hint : XviD
Duration : 1h 43mn
Bit rate : 1 573 Kbps
Width : 720 pixels
Height : 400 pixels
Display aspect ratio : 16:9
Frame rate : 23.976 fps
Color space : YUV
Chroma subsampling : 4:2:0
Bit depth : 8 bits
Scan type : Progressive
Compression mode : Lossy
Bits/(Pixel*Frame) : 0.228
Stream size : 1.13 GiB (80%)
Writing library : XviD 1.2.1 (UTC 2008-12-04)
Audio #1
ID : 1
Format : AC-3
Format/Info : Audio Coding 3
Mode extension : CM (complete main)
Format settings, Endianness : Big
Codec ID : 2000
Duration : 1h 43mn
Bit rate mode : Constant
Bit rate : 192 Kbps
Channel(s) : 2 channels
Channel positions : Front: L R
Sampling rate : 48.0 KHz
Compression mode : Lossy
Stream size : 142 MiB (10%)
Alignment : Split accross interleaves
Interleave, duration : 42 ms (1.00 video frame)
Interleave, preload duratio : 500 ms
Audio #2
ID : 2
Format : AC-3
Format/Info : Audio Coding 3
Mode extension : CM (complete main)
Format settings, Endianness : Big
Codec ID : 2000
Duration : 1h 43mn
Bit rate mode : Constant
Bit rate : 192 Kbps
Channel(s) : 2 channels
Channel positions : Front: L R
Sampling rate : 48.0 KHz
Compression mode : Lossy
Stream size : 142 MiB (10%)
Alignment : Split accross interleaves
Interleave, duration : 42 ms (1.00 video frame)
Interleave, preload duratio : 500 ms

Скриншот c названием фильма

Скриншоты

To download the content you need:
1. Download and install torrent client [for Windows] or for mobile system
2. Click on [Download]
Attention.
If the test YOU are NOT a ROBOT - does not work, then You are using an outdated browser.
Install the current browser and click on [Download]

Do not work with Yandex browser. Uploading files to them is erroneous.
Security: torrent client is allowed by Kaspersky.

[en.asmlocator.ru].t4275.torrent 
Torrent: Registered [ 2015-11-30 05:45 ] · 6F11F2FC47F08862308B007E7C989D3F1BBE4DB4

Download .torrent

Download

16 KB

Status: checked
Completed: 0 times
Size: 1.56 GB
terms.php
[Profile] [PM]
Display posts:    
Reply to topic

Current time is: 07-Apr 18:50

All times are UTC ± 0



You cannot post new topics in this forum
You cannot reply to topics in this forum
You cannot edit your posts in this forum
You cannot delete your posts in this forum
You cannot vote in polls in this forum
You cannot attach files in this forum
You can download files in this forum
Верим фактам, а не вранью Путина! Факт, что Правительство ведёт Россию к истреблению.
Так как численность населения падает, даже не смотря на приток эмигрантов!
Русская нация вымирает и вырождается, смешиваясь с эмигрантами!
Факт, что военных и граждан предприятий заставляют голосовать за партию Единая Россия и Путина
ПОД СТРАХОМ УВОЛЬНЕНИЯ!
Нам не нужно Правительство, блокирующее личную жизнь, интернет, нарушающее сохранность данных.
Все эти действия финансируются за счёт народа!