Урод - Лютер / Лютер-живоглот / Лютер-пожиратель / Luther The Geek (Карлтон Джей. Олбрайт / Karlton Jay. Olbrayt) [1990, США, Ужасы, слэшер, драма., DVDRip] AVO Алексеев + AVO Кузнецов

Reply to topic
DL-List and Torrent activity
Size:  1.38 GB   |    Registered:  4 years 4 months   |    Completed:  0 times

Seeder not seen: 3 years 6 months

 
   
 
 
Author Message

star21 ®

Gender: Female

Longevity: 4 years 5 months

Posts: 551945

Location: Екатеринбург

Post 30-Nov-2015 05:54

[Quote]

Урод - Лютер / Лютер-живоглот / Лютер-пожиратель / Luther The Geek
Страна: США
Жанр: Ужасы, слэшер, драма.
Год выпуска: 1990
Продолжительность: 1:20:03
Перевод: Авторский (одноголосый закадровый) А. Алексеев
Перевод 2: Авторский (одноголосый закадровый) С. Кузнецов
Cубтитры: нет
Режиссер: Карлтон Джей. Олбрайт / Karlton Jay. Olbrayt
В ролях: Эдвард Терри , Джоан Рот , Стэйси Хайдук , Томас Миллс , Джерри Кларк , Том Бриттингем , Карлтон Уильямс
Описание: В детстве Лютер увидел на карнавале пьянчугу-«фрика», откусывавшего головы живым цыплятам. Паренёк был настолько шокирован этим зрелищем, что помешался и вырос настоящим кровожадным безумцем. Проведя почти всю юность за решёткой, 30-летний Лютер решает взяться за старое в небольшом городке…
Доп. информация: Рип с DVD 9 от Lucian666
Сэмпл: https://www.sendspace.com/file/5hdcx7
Качество видео: DVDRip
Формат видео: AVI
Видео: XviD MPEG-4 , 640x480 (1.33:1) , 23.976 fps , 2 067 Kbps
Аудио:
AC3 , 48 kHz , 192.00 kbps avg , 2/0 (L,R) ch - Алексеев
AC3 , 48 kHz , 192.00 kbps avg , 2/0 (L,R) ch - Кузнецов

MediaInfo

Complete name Урод Лютер 1990.avi
Format : AVI
Format/Info : Audio Video Interleave
File size : 1.38 GiB
Duration : 1h 20mn
Overall bit rate : 2 465 Kbps
Writing application : VirtualDubMod 1.5.10.3 | www.virtualdub-fr.org || (build 2550/release)
Writing library : VirtualDubMod build 2550/release
Video
ID : 0
Format : MPEG-4 Visual
Format profile : Advanced Simple@L5
Format settings, BVOP : 1
Format settings, QPel : No
Format settings, GMC : No warppoints
Format settings, Matrix : Default (MPEG)
Codec ID : XVID
Codec ID/Hint : XviD
Duration : 1h 20mn
Bit rate : 2 067 Kbps
Width : 640 pixels
Height : 480 pixels
Display aspect ratio : 4:3
Frame rate : 23.976 fps
Color space : YUV
Chroma subsampling : 4:2:0
Bit depth : 8 bits
Scan type : Progressive
Compression mode : Lossy
Bits/(Pixel*Frame) : 0.281
Stream size : 1.16 GiB (84%)
Writing library : XviD 1.2.1 (UTC 2008-12-04)
Audio #1
ID : 1
Format : AC-3
Format/Info : Audio Coding 3
Mode extension : CM (complete main)
Format settings, Endianness : Big
Codec ID : 2000
Duration : 1h 20mn
Bit rate mode : Constant
Bit rate : 192 Kbps
Channel(s) : 2 channels
Channel positions : Front: L R
Sampling rate : 48.0 KHz
Compression mode : Lossy
Stream size : 110 MiB (8%)
Alignment : Split accross interleaves
Interleave, duration : 42 ms (1.00 video frame)
Interleave, preload duratio : 500 ms
Audio #2
ID : 2
Format : AC-3
Format/Info : Audio Coding 3
Mode extension : CM (complete main)
Format settings, Endianness : Big
Codec ID : 2000
Duration : 1h 20mn
Bit rate mode : Constant
Bit rate : 192 Kbps
Channel(s) : 2 channels
Channel positions : Front: L R
Sampling rate : 48.0 KHz
Compression mode : Lossy
Stream size : 110 MiB (8%)
Alignment : Aligned on interleaves
Interleave, duration : 42 ms (1.00 video frame)
Interleave, preload duratio : 512 ms

Скриншоты

To download the content you need:
1. Download and install torrent client [for Windows] or for mobile system
2. Click on [Download]
Attention.
If the test YOU are NOT a ROBOT - does not work, then You are using an outdated browser.
Install the current browser and click on [Download]

Do not work with Yandex browser. Uploading files to them is erroneous.
Security: torrent client is allowed by Kaspersky.

[en.asmlocator.ru].t4274.torrent 
Torrent: Registered [ 2015-11-30 05:45 ] · BEA0CB18685F46CCED844C5622A7B2E732744798

Download .torrent

Download

14 KB

Status: checked
Completed: 0 times
Size: 1.38 GB
terms.php
[Profile] [PM]
Display posts:    
Reply to topic

Current time is: 10-Apr 08:34

All times are UTC ± 0



You cannot post new topics in this forum
You cannot reply to topics in this forum
You cannot edit your posts in this forum
You cannot delete your posts in this forum
You cannot vote in polls in this forum
You cannot attach files in this forum
You can download files in this forum
Верим фактам, а не вранью Путина! Факт, что Правительство ведёт Россию к истреблению.
Так как численность населения падает, даже не смотря на приток эмигрантов!
Русская нация вымирает и вырождается, смешиваясь с эмигрантами!
Факт, что военных и граждан предприятий заставляют голосовать за партию Единая Россия и Путина
ПОД СТРАХОМ УВОЛЬНЕНИЯ!
Нам не нужно Правительство, блокирующее личную жизнь, интернет, нарушающее сохранность данных.
Все эти действия финансируются за счёт народа!