Как гром среди ясного неба / Средь ясного неба / Out of the Blue (Деннис Хоппер /Dennis Hopper) [1980, Канада, драма, DVDRip] VO (Севастьянов)

Reply to topic
DL-List and Torrent activity
Size:  745 MB   |    Registered:  4 years 4 months   |    Completed:  1 time

Seeder not seen: 3 months 16 days

 
   
 
 
Author Message

star21 ®

Gender: Female

Longevity: 4 years 4 months

Posts: 551945

Location: Екатеринбург

Post 30-Nov-2015 05:54

[Quote]

Как гром среди ясного неба / Средь ясного неба / Out of the Blue
Страна: Канада
Жанр: драма
Год выпуска: 1980
Продолжительность: 01:29:33
Перевод: Одноголосый закадровый Никита Севастьянов
Cубтитры: нет
Режиссер: Деннис Хоппер /Dennis Hopper
В ролях: Линда Мэнз, Деннис Хоппер, Шарон Фаррелл, Дон Гордон, Рэймонд Барр, Эрик Аллен, Фиона Броди, Дэвид Л. Кроули, Джоан Хоффман, Карл Нельсон, Френсис Энн Петтит, Глен Пфайфер, Джим Бёрнс
Описание: История 16-летней девочки-сорванца по имени Сиби, чья мама проститутка, а отец отбывает 5 лет в тюрьме за то, что въехал на фуре в школьный автобус. Сиби слушает панк, курит травку и время от времени посещает школу. Однако, дело осложняется, когда «на свободу с чистой совестью» выходит её отец-алкоголик.
Сэмпл: http://multi-up.com/1065363

Качество видео: DVDRip -
Формат видео: AVI
Видео: 640x352 (1.82:1), 25 fps, XviD, 1025 kbps, 0.18 bit/pixel
Аудио: 48 kHz, MPEG Layer 3, 2 ch, 128.00 kbps, VO (Севастьянов)

MediaInfo

General
Complete name : E:\Раздачи\rutracker.org\Kak_grom_sredi_jasnogo_neba_745_by_max1wq.avi
Format : AVI
Format/Info : Audio Video Interleave
File size : 745 MiB
Duration : 1h 29mn
Overall bit rate : 1 163 Kbps
Writing application : VirtualDubMod 1.5.10.2 (build 2540/release)
Writing library : VirtualDubMod build 2540/release
Video
ID : 0
Format : MPEG-4 Visual
Format profile : Advanced Simple@L5
Format settings, BVOP : 1
Format settings, QPel : No
Format settings, GMC : No warppoints
Format settings, Matrix : Custom
Codec ID : XVID
Codec ID/Hint : XviD
Duration : 1h 29mn
Bit rate : 1 026 Kbps
Width : 640 pixels
Height : 352 pixels
Display aspect ratio : 16:9
Frame rate : 25.000 fps
Color space : YUV
Chroma subsampling : 4:2:0
Bit depth : 8 bits
Scan type : Progressive
Compression mode : Lossy
Bits/(Pixel*Frame) : 0.182
Stream size : 657 MiB (88%)
Writing library : XviD 73
Audio
ID : 1
Format : MPEG Audio
Format version : Version 1
Format profile : Layer 3
Codec ID : 55
Codec ID/Hint : MP3
Duration : 1h 29mn
Bit rate mode : Constant
Bit rate : 128 Kbps
Channel(s) : 2 channels
Sampling rate : 48.0 KHz
Compression mode : Lossy
Stream size : 82.0 MiB (11%)
Alignment : Aligned on interleaves
Interleave, duration : 40 ms (1.00 video frame)
Interleave, preload duration : 504 ms

To download the content you need:
1. Download and install torrent client [for Windows] or for mobile system
2. Click on [Download]
Attention.
If the test YOU are NOT a ROBOT - does not work, then You are using an outdated browser.
Install the current browser and click on [Download]

Do not work with Yandex browser. Uploading files to them is erroneous.
Security: torrent client is allowed by Kaspersky.

[en.asmlocator.ru].t4268.torrent 
Torrent: Registered [ 2015-11-30 05:45 ] · 51436AC4561FB856A85B2722F720DB8EFB1C8B7C

Download .torrent

Download

15 KB

Status: checked
Completed: 1 times
Size: 745 MB
terms.php
[Profile] [PM]
Display posts:    
Reply to topic

Current time is: 03-Apr 04:08

All times are UTC ± 0



You cannot post new topics in this forum
You cannot reply to topics in this forum
You cannot edit your posts in this forum
You cannot delete your posts in this forum
You cannot vote in polls in this forum
You cannot attach files in this forum
You can download files in this forum
Верим фактам, а не вранью Путина! Факт, что Правительство ведёт Россию к истреблению.
Так как численность населения падает, даже не смотря на приток эмигрантов!
Русская нация вымирает и вырождается, смешиваясь с эмигрантами!
Факт, что военных и граждан предприятий заставляют голосовать за партию Единая Россия и Путина
ПОД СТРАХОМ УВОЛЬНЕНИЯ!
Нам не нужно Правительство, блокирующее личную жизнь, интернет, нарушающее сохранность данных.
Все эти действия финансируются за счёт народа!