Одарённый / The Gifted One (Стивен Херек / Stephen Herek) [1989, США, Фэнтези, драма, приключения, VHSRip] VO (Stalk) + Sub Rus + Original Eng

Reply to topic
DL-List and Torrent activity
Size:  1.4 GB   |    Registered:  4 years 4 months   |    Completed:  0 times

Seeder not seen: 3 years

 
   
 
 
Author Message

star21 ®

Gender: Female

Longevity: 4 years 5 months

Posts: 551945

Location: Екатеринбург

Post 30-Nov-2015 05:54

[Quote]

Одарённый / The Gifted One
Страна: США
Жанр: Фэнтези, драма, приключения
Год выпуска: 1989
Продолжительность: 01:34:52
Перевод: Одноголосый закадровый Stalk (Никита Кирдин)
Cубтитры: русские
Оригинальная аудиодорожка: английский
Режиссер: Стивен Херек / Stephen Herek
В ролях: Петер Кованко, Джон Рис-Дэвис, Дж. У. Бейли, Уэнди Филлипс, Грегг Генри, Мэйсон Арнольд, Чарльз Бентон, Арелл Блэнтон, Энтони Болден
Описание: Майкл Грант - чрезвычайно одарённый ребёнок. Он способен на такое, чего не только его сверстникам, но и большинству современников не под силу. Но живёт он в американской глубинке и попасть в большой мир не спешит. Будущее его туманно, прошлое полно загадок. Для чего он появился на свет, как ему применить свои уникальные способности, сможет ли он обрести верных друзей?
Доп. информация: Фильм достаточно редкий, в сети есть два варианта SATrip'a. Для релиза выбрал этот, поскольку тут полноценный стереозвук и не обрезан ряд сцен, хотя качество картинки хуже. Его предоставил Mart1z.
В ролях засветились Джон Рис-Девис (куча культовых ролей, например друг Индианы Джонса Салла, гном Гимли в трилогии "Властелин колец" и пр.), Дж. У. Бейли (лейтенант Харрис в "Полицейских академиях"), Брэндон Колл (мальчик-источник топлива в "Чернокнижнике" и Брендон Кепвелл в "Санта-Барбаре").
Мой перевод выполнен по заказу .
Перевод, данный в субтитрах, альтернативный.
Сэмпл: http://multi-up.com/1065376
Качество видео: VHSRip
Формат видео: AVI
Видео: XviD, 560x416, 25 fps, 1580 Кбит/с,
Аудио: AC3 Dolby Digital 48000 Гц, 2ch, 256 Кбит/сек (RUS)
Аудио 2: AC3 Dolby Digital 48000 Гц, 2ch, 256 Кбит/сек (EN)
Формат субтитров: softsub (SRT)
Доп. информация о субтитрах: (Перевод Kate и Lee)

MediaInfo

Общее
Полное имя : N:\***\Одарённый (1989)\Одарённый.avi
Формат : AVI
Формат/Информация : Audio Video Interleave
Размер файла : 1,40 Гбайт
Продолжительность : 1 ч. 34 м.
Общий поток : 2106 Кбит/сек
Программа кодирования : VirtualDubMod 1.5.4.1 (build 2178/release)
Библиотека кодирования : VirtualDubMod build 2178/release
Видео
Идентификатор : 0
Формат : MPEG-4 Visual
Профиль формата : Advanced Simple@L5
Параметр BVOP формата : 1
Параметр QPel формата : Нет
Параметр GMC формата : Без точки перехода
Параметр матрицы формата : Выборочная
Идентификатор кодека : XVID
Идентификатор кодека/Подсказка : XviD
Продолжительность : 1 ч. 34 м.
Битрейт : 1580 Кбит/сек
Ширина : 560 пикселей
Высота : 416 пикселей
Соотношение сторон : 4:3
Частота кадров : 25,000 кадров/сек
Цветовое пространство : YUV
Субдискретизация насыщенности : 4:2:0
Битовая глубина : 8 бит
Тип развёртки : Прогрессивная
Метод сжатия : С потерями
Бит/(Пиксели*Кадры) : 0.271
Размер потока : 1,05 Гбайт (75%)
Библиотека кодирования : XviD 73
Аудио #1
Идентификатор : 1
Формат : AC-3
Формат/Информация : Audio Coding 3
Расширение режима : CM (complete main)
Параметр Endianness формата : Big
Идентификатор кодека : 2000
Продолжительность : 1 ч. 34 м.
Вид битрейта : Постоянный
Битрейт : 256 Кбит/сек
Каналы : 2 канала
Расположение каналов : Front: L R
Частота : 48,0 КГц
Метод сжатия : С потерями
Размер потока : 174 Мбайт (12%)
Выравнивание : Разделение по промежуткам
Продолжительность промежутка : 40 мс. (1,00 видеокадр)
Время предзагрузки промежутка : 500 мс.
Аудио #2
Идентификатор : 2
Формат : AC-3
Формат/Информация : Audio Coding 3
Расширение режима : CM (complete main)
Параметр Endianness формата : Big
Идентификатор кодека : 2000
Продолжительность : 1 ч. 34 м.
Вид битрейта : Постоянный
Битрейт : 256 Кбит/сек
Каналы : 2 канала
Расположение каналов : Front: L R
Частота : 48,0 КГц
Метод сжатия : С потерями
Размер потока : 174 Мбайт (12%)
Выравнивание : Разделение по промежуткам
Продолжительность промежутка : 40 мс. (1,00 видеокадр)
Время предзагрузки промежутка : 500 мс.

Скриншот c названием фильма

Скриншоты

To download the content you need:
1. Download and install torrent client [for Windows] or for mobile system
2. Click on [Download]
Attention.
If the test YOU are NOT a ROBOT - does not work, then You are using an outdated browser.
Install the current browser and click on [Download]

Do not work with Yandex browser. Uploading files to them is erroneous.
Security: torrent client is allowed by Kaspersky.

[en.asmlocator.ru].t4267.torrent 
Torrent: Registered [ 2015-11-30 05:45 ] · CAE45AE75A420F2627FE7F6D9E83FDBE9F9389C0

Download .torrent

Download

15 KB

Status: checked
Completed: 0 times
Size: 1.4 GB
terms.php
[Profile] [PM]
Display posts:    
Reply to topic

Current time is: 10-Apr 09:33

All times are UTC ± 0



You cannot post new topics in this forum
You cannot reply to topics in this forum
You cannot edit your posts in this forum
You cannot delete your posts in this forum
You cannot vote in polls in this forum
You cannot attach files in this forum
You can download files in this forum
Верим фактам, а не вранью Путина! Факт, что Правительство ведёт Россию к истреблению.
Так как численность населения падает, даже не смотря на приток эмигрантов!
Русская нация вымирает и вырождается, смешиваясь с эмигрантами!
Факт, что военных и граждан предприятий заставляют голосовать за партию Единая Россия и Путина
ПОД СТРАХОМ УВОЛЬНЕНИЯ!
Нам не нужно Правительство, блокирующее личную жизнь, интернет, нарушающее сохранность данных.
Все эти действия финансируются за счёт народа!