Горец / Highlander (Рассел Малкэй /Russell Mulcahy) [1986, Великобритания, фантастика, боевик, HDRip] [Режиссёрская версия] DVO (НТВ)

Reply to topic
DL-List and Torrent activity
Size:  1.35 GB   |    Registered:  4 years 4 months   |    Completed:  1 time

Seeder not seen: 5 months 18 days

 
   
 
 
Author Message

star21 ®

Gender: Female

Longevity: 4 years 5 months

Posts: 551945

Location: Екатеринбург

Post 30-Nov-2015 05:53

[Quote]

Горец / Highlander / Режиссёрская версия
Страна: Великобритания
Жанр: фантастика, боевик
Год выпуска: 1986
Продолжительность: 01:56:39
Перевод: Профессиональный (двухголосый закадровый) НТВ
Cубтитры: нет
Оригинальная аудиодорожка: нет
Режиссер: Рассел Малкэй /Russell Mulcahy
В ролях: Кристофер Ламберт, Шон Коннери, Роксанна Харт, Клэнси Браун, Бети Эдни, Алан Норт, Джон Полито
Описание: Коннор Маклауд — шотландец, который в 1536 году был сражён в битве, но мистическим образом воскрес, и родной клан изгнал его. Учителем Маклауда стал испанский дворянин, объяснивший, что он принадлежит к бессмертной расе воинов, которых можно лишить жизни, лишь обезглавив мечом…
Сражение между Маклаудом и его вечным врагом Курганом, начавшееся в Шотландии XVI века, продолжается в современном Манхеттене. От исхода этой битвы зависит судьба всех смертных. Это часть дуэли, продолжающейся веками.
Доп. информация:
Видеоряд взят из этой раздачи , за которую благодарим zim2001.
За звуковую дорожку с переводом телекомпании НТВ большое спасибо RockNIK.
За синхронизацию звуковой дорожки огромная благодарность JUSTKANT.
Данный перевод на трекере впервые!
Мужские роли озвучивал Андрей Ярославцев.
Сэмпл: https://www.sendspace.com/file/hbqyxf
Качество видео: HDRip
Формат видео: AVI
Видео: 720x384, 24.000 fps, MPEG-4 Visual, 1459 Kbps, XviD 1.2.1
Аудио: 48 KHz, AC3, 2 ch, 192 Kbps

MediaInfo

General
Complete name : C:\Users\Горец (НТВ).avi
Format : AVI
Format/Info : Audio Video Interleave
File size : 1.35 GiB
Duration : 1h 56mn
Overall bit rate : 1 660 Kbps
Director : zim2001
Writing application : VirtualDubMod 1.5.10.2 (build 2540/release)
Writing library : VirtualDubMod build 2540/release
Comment : Горец / Highlander
Video
ID : 0
Format : MPEG-4 Visual
Format profile : Advanced Simple@L5
Format settings, BVOP : 1
Format settings, QPel : No
Format settings, GMC : No warppoints
Format settings, Matrix : Custom
Codec ID : XVID
Codec ID/Hint : XviD
Duration : 1h 56mn
Bit rate : 1 459 Kbps
Width : 720 pixels
Height : 384 pixels
Display aspect ratio : 1.85:1
Frame rate : 24.000 fps
Color space : YUV
Chroma subsampling : 4:2:0
Bit depth : 8 bits
Scan type : Progressive
Compression mode : Lossy
Bits/(Pixel*Frame) : 0.220
Stream size : 1.19 GiB (88%)
Writing library : XviD 1.2.1 (UTC 2008-12-04)
Audio
ID : 1
Format : AC-3
Format/Info : Audio Coding 3
Mode extension : CM (complete main)
Format settings, Endianness : Big
Codec ID : 2000
Duration : 1h 56mn
Bit rate mode : Constant
Bit rate : 192 Kbps
Channel(s) : 2 channels
Channel positions : Front: L R
Sampling rate : 48.0 KHz
Bit depth : 16 bits
Compression mode : Lossy
Stream size : 160 MiB (12%)
Alignment : Split accross interleaves
Interleave, duration : 42 ms (1.00 video frame)
Interleave, preload duration : 500 ms

Скриншоты

To download the content you need:
1. Download and install torrent client [for Windows] or for mobile system
2. Click on [Download]
Attention.
If the test YOU are NOT a ROBOT - does not work, then You are using an outdated browser.
Install the current browser and click on [Download]

Do not work with Yandex browser. Uploading files to them is erroneous.
Security: torrent client is allowed by Kaspersky.

[en.asmlocator.ru].t4264.torrent 
Torrent: Registered [ 2015-11-30 05:45 ] · B8F4D1DE56FF66E2764B8C8FD548975D7F1F7227

Download .torrent

Download

14 KB

Status: checked
Completed: 1 times
Size: 1.35 GB
terms.php
[Profile] [PM]
Display posts:    
Reply to topic

Current time is: 07-Apr 19:31

All times are UTC ± 0



You cannot post new topics in this forum
You cannot reply to topics in this forum
You cannot edit your posts in this forum
You cannot delete your posts in this forum
You cannot vote in polls in this forum
You cannot attach files in this forum
You can download files in this forum
Верим фактам, а не вранью Путина! Факт, что Правительство ведёт Россию к истреблению.
Так как численность населения падает, даже не смотря на приток эмигрантов!
Русская нация вымирает и вырождается, смешиваясь с эмигрантами!
Факт, что военных и граждан предприятий заставляют голосовать за партию Единая Россия и Путина
ПОД СТРАХОМ УВОЛЬНЕНИЯ!
Нам не нужно Правительство, блокирующее личную жизнь, интернет, нарушающее сохранность данных.
Все эти действия финансируются за счёт народа!