Электрошок / Shocker (Уэс Крэйвен / Wes Craven) [1989, США, Ужасы, триллер, комедия, BDRip-AVC] MVO (R5) + AVO (Гаврилов) + AVO (Живов) + AVO (Иванов) + AVO (Горчаков) + Subs (Rus, Eng)

Reply to topic
DL-List and Torrent activity
Size:  3.66 GB   |    Registered:  4 years 4 months   |    Completed:  0 times

Seeder not seen: Never

 
   
 
 
Author Message

star21 ®

Gender: Female

Longevity: 4 years 4 months

Posts: 551945

Location: Екатеринбург

Post 30-Nov-2015 05:53

[Quote]

Электрошок / Shocker- Год выпуска: 1989
Выпущено: США / Alive Films, Carolco Pictures Inc.
Жанр: ужасы, триллер, комедия
Продолжительность: 01:49:35
Перевод (1): Профессиональный (многоголосый закадровый) R5
Перевод (2): Авторский (одноголосый закадровый) Андрей Гаврилов
Перевод (3): Авторский (одноголосый закадровый) Юрий Живов
Перевод (4): Авторский (одноголосый закадровый) Михаил Иванов
Перевод (5): Авторский (одноголосый закадровый) Василий Горчаков
Оригинальная аудиодорожка: Английская
Cубтитры: Русские, Английские (полные, SDH)
Навигация по главам: Есть (12 глав)-Режиссер:
Уэс Крэйвен / Wes Craven-В ролях:
Майкл Мерфи (Lt. Don Parker), Питер Берг (Jonathan Parker), Митч Пилледжи (Horace Pinker), Сэм Скарбер (Cooper), Камилль Купер (Alison), Тед Рэйми (Pac Man), Кейт Энтони-Любов-Беллами (Football Player), Хэзер Лэнгенкэмп (Victim), Вирджиния Моррис (Diane), Джон Тэш (TV Newscaster), Джессика Крэвен (Counterperson), Эмили Сэмюэл (Sally)-Описание:
Серийный убийца приговорен к казни на электрическом стуле. Однако он умудряется использовать электрошок, чтобы «воскреснуть» из мертвых. Причем он может выступать как в своем обличии, так и в образе своих жертв. И теперь он жаждет отомстить футболисту, который выдал маньяка-убийцу полиции.-Релиз групп | | [imdb]http://www.imdb.com/title/tt0098320[/imdb] | КиноПоиск | Сэмпл | Сравнение с исходником |-Тип релиза: BDRip-AVC [BDRemux | 1080p | BLUEBIRD]
Контейнер: MKV
Видео: 1120x608 (1.85:1), 23.976 fps, x264 ~2277 kbps avg, 0.139 bit/pixel
Аудио #1: 48 kHz, AC3 Dolby Digital, 3/2 (L,C,R,l,r) + LFE ch, ~448.00 kbps avg (MVO) R5
Аудио #2: 48 kHz, AC3 Dolby Digital, 3/2 (L,C,R,l,r) + LFE ch, ~448.00 kbps avg (AVO) Андрей Гаврилов
Аудио #3: 48 kHz, AC3 Dolby Digital, 3/2 (L,C,R,l,r) + LFE ch, ~448.00 kbps avg (ENG)
Аудио #4: 48 kHz, AC3 Dolby Digital, 3/2 (L,C,R,l,r) + LFE ch, ~448.00 kbps avg (AVO) Юрий Живов отдельно
Аудио #5: 48 kHz, AC3 Dolby Digital, 3/2 (L,C,R,l,r) + LFE ch, ~448.00 kbps avg (AVO) Михаил Иванов отдельно
Аудио #6: 48 kHz, AC3 Dolby Digital, 2/0 (L,R) ch, ~192.00 kbps avg (AVO) Василий Горчаков отдельно-

Скриншоты

MediaInfo

General
Complete name                            : D:\Elektroshok_1989_BDRip-AVC_by_Dalemake.mkv
Format                                   : Matroska
Format version                           : Version 4 / Version 2
File size                                : 2.83 GiB
Duration                                 : 1h 49mn
Overall bit rate                         : 3 694 Kbps
Encoded date                             : UTC 2015-09-09 12:46:02
Writing application                      : mkvmerge v6.1.0 ('Old Devil') built on Mar  4 2013 09:10:42
Writing library                          : libebml v1.3.0 + libmatroska v1.4.0
Video
ID                                       : 1
Format                                   : AVC
Format/Info                              : Advanced Video Codec
Format profile                           : High@L4.1
Format settings, CABAC                   : Yes
Format settings, ReFrames                : 11 frames
Codec ID                                 : V_MPEG4/ISO/AVC
Duration                                 : 1h 49mn
Bit rate                                 : 2 277 Kbps
Width                                    : 1 120 pixels
Height                                   : 608 pixels
Display aspect ratio                     : 1.85:1
Frame rate mode                          : Constant
Frame rate                               : 23.976 fps
Color space                              : YUV
Chroma subsampling                       : 4:2:0
Bit depth                                : 8 bits
Scan type                                : Progressive
Bits/(Pixel*Frame)                       : 0.139
Stream size                              : 1.74 GiB (62%)
Writing library                          : x264 core 130 r2273 b3065e6
Encoding settings                        : cabac=1 / ref=11 / deblock=1:-1:-1 / analyse=0x3:0x113 / me=umh / subme=11 / psy=1 / psy_rd=1.00:0.00 / mixed_ref=1 / me_range=32 / chroma_me=1 / trellis=2 / 8x8dct=1 / cqm=0 / deadzone=21,11 / fast_pskip=1 / chroma_qp_offset=-2 / threads=6 / lookahead_threads=1 / sliced_threads=0 / nr=0 / decimate=0 / interlaced=0 / bluray_compat=0 / constrained_intra=0 / bframes=14 / b_pyramid=2 / b_adapt=2 / b_bias=0 / direct=3 / weightb=1 / open_gop=1 / weightp=2 / keyint=240 / keyint_min=23 / scenecut=40 / intra_refresh=0 / rc_lookahead=60 / rc=crf / mbtree=1 / crf=18.0 / qcomp=0.60 / qpmin=0 / qpmax=69 / qpstep=4 / vbv_maxrate=62500 / vbv_bufsize=50000 / crf_max=0.0 / nal_hrd=none / ip_ratio=1.40 / aq=1:0.80
Default                                  : Yes
Forced                                   : No
Audio #1
ID                                       : 2
Format                                   : AC-3
Format/Info                              : Audio Coding 3
Mode extension                           : CM (complete main)
Format settings, Endianness              : Big
Codec ID                                 : A_AC3
Duration                                 : 1h 49mn
Bit rate mode                            : Constant
Bit rate                                 : 448 Kbps
Channel(s)                               : 6 channels
Channel positions                        : Front: L C R, Side: L R, LFE
Sampling rate                            : 48.0 KHz
Bit depth                                : 16 bits
Compression mode                         : Lossy
Stream size                              : 351 MiB (12%)
Title                                    : MVO R5
Language                                 : Russian
Default                                  : Yes
Forced                                   : No
Audio #2
ID                                       : 3
Format                                   : AC-3
Format/Info                              : Audio Coding 3
Mode extension                           : CM (complete main)
Format settings, Endianness              : Big
Codec ID                                 : A_AC3
Duration                                 : 1h 49mn
Bit rate mode                            : Constant
Bit rate                                 : 448 Kbps
Channel(s)                               : 6 channels
Channel positions                        : Front: L C R, Side: L R, LFE
Sampling rate                            : 48.0 KHz
Bit depth                                : 16 bits
Compression mode                         : Lossy
Stream size                              : 351 MiB (12%)
Title                                    : AVO Gavrilov
Language                                 : Russian
Default                                  : No
Forced                                   : No
Audio #3
ID                                       : 4
Format                                   : AC-3
Format/Info                              : Audio Coding 3
Mode extension                           : CM (complete main)
Format settings, Endianness              : Big
Codec ID                                 : A_AC3
Duration                                 : 1h 49mn
Bit rate mode                            : Constant
Bit rate                                 : 448 Kbps
Channel(s)                               : 6 channels
Channel positions                        : Front: L C R, Side: L R, LFE
Sampling rate                            : 48.0 KHz
Bit depth                                : 16 bits
Compression mode                         : Lossy
Stream size                              : 351 MiB (12%)
Title                                    : Original
Language                                 : English
Default                                  : No
Forced                                   : No
Text #1
ID                                       : 5
Format                                   : UTF-8
Codec ID                                 : S_TEXT/UTF8
Codec ID/Info                            : UTF-8 Plain Text
Title                                    : Full
Language                                 : Russian
Default                                  : Yes
Forced                                   : No
Text #2
ID                                       : 6
Format                                   : UTF-8
Codec ID                                 : S_TEXT/UTF8
Codec ID/Info                            : UTF-8 Plain Text
Title                                    : Full
Language                                 : English
Default                                  : No
Forced                                   : No
Text #3
ID                                       : 7
Format                                   : UTF-8
Codec ID                                 : S_TEXT/UTF8
Codec ID/Info                            : UTF-8 Plain Text
Title                                    : Full SDH
Language                                 : English
Default                                  : No
Forced                                   : No
Menu
00:00:00.000                             : en:Chapter 1
00:09:07.547                             : en:Chapter 2
00:14:41.881                             : en:Chapter 3
00:20:38.237                             : en:Chapter 4
00:28:45.724                             : en:Chapter 5
00:35:10.442                             : en:Chapter 6
00:45:42.073                             : en:Chapter 7
00:51:03.394                             : en:Chapter 8
01:01:59.215                             : en:Chapter 9
01:16:51.816                             : en:Chapter 10
01:25:04.516                             : en:Chapter 11
01:30:09.446                             : en:Chapter 12

x264 log

x264 [info]: frame I:1032  Avg QP:15.94  size: 82135
x264 [info]: frame P:31754 Avg QP:19.82  size: 25759
x264 [info]: frame B:124856 Avg QP:22.31  size:  8225
x264 [info]: consecutive B-frames:  1.1%  1.4%  6.2% 16.3% 19.2% 48.8%  4.1%  1.3%  0.6%  0.3%  0.2%  0.2%  0.1%  0.1%  0.1%
x264 [info]: mb I  I16..4:  5.8% 81.4% 12.8%
x264 [info]: mb P  I16..4:  0.8%  9.5%  1.2%  P16..4: 36.7% 36.4%  8.3%  0.0%  0.0%    skip: 7.1%
x264 [info]: mb B  I16..4:  0.0%  1.1%  0.1%  B16..8: 39.1% 16.8%  1.9%  direct: 3.8%  skip:37.2%  L0:44.1% L1:48.0% BI: 7.9%
x264 [info]: 8x8 transform intra:83.3% inter:68.7%
x264 [info]: direct mvs  spatial:100.0% temporal:0.0%
x264 [info]: coded y,uvDC,uvAC intra: 91.7% 74.1% 37.4% inter: 21.1% 15.3% 2.9%
x264 [info]: i16 v,h,dc,p: 27% 18%  4% 51%
x264 [info]: i8 v,h,dc,ddl,ddr,vr,hd,vl,hu:  7%  6%  3% 11% 17% 15% 15% 13% 13%
x264 [info]: i4 v,h,dc,ddl,ddr,vr,hd,vl,hu:  9%  7%  3%  9% 17% 16% 15% 12% 13%
x264 [info]: i8c dc,h,v,p: 32% 29% 20% 20%
x264 [info]: Weighted P-Frames: Y:5.8% UV:2.8%
x264 [info]: ref P L0: 44.7% 10.2% 18.7%  6.5%  5.7%  3.8%  3.6%  1.8%  1.8%  1.5%  1.6%  0.2%  0.0%
x264 [info]: ref B L0: 76.3% 10.8%  4.8%  2.5%  1.8%  1.4%  1.1%  0.7%  0.4%  0.2%
x264 [info]: ref B L1: 93.9%  6.1%
-

To download the content you need:
1. Download and install torrent client [for Windows] or for mobile system
2. Click on [Download]
Attention.
If the test YOU are NOT a ROBOT - does not work, then You are using an outdated browser.
Install the current browser and click on [Download]

Do not work with Yandex browser. Uploading files to them is erroneous.
Security: torrent client is allowed by Kaspersky.

[en.asmlocator.ru].t4262.torrent 
Torrent: Registered [ 2015-11-30 05:45 ] · 02BD01C6A19A3417DEE27ED8395A868DFBC3A7F7

Download .torrent

Download

19 KB

Status: checked
Completed: 0 times
Size: 3.66 GB
terms.php
[Profile] [PM]
Display posts:    
Reply to topic

Current time is: 31-Mar 17:18

All times are UTC ± 0



You cannot post new topics in this forum
You cannot reply to topics in this forum
You cannot edit your posts in this forum
You cannot delete your posts in this forum
You cannot vote in polls in this forum
You cannot attach files in this forum
You can download files in this forum
Верим фактам, а не вранью Путина! Факт, что Правительство ведёт Россию к истреблению.
Так как численность населения падает, даже не смотря на приток эмигрантов!
Русская нация вымирает и вырождается, смешиваясь с эмигрантами!
Факт, что военных и граждан предприятий заставляют голосовать за партию Единая Россия и Путина
ПОД СТРАХОМ УВОЛЬНЕНИЯ!
Нам не нужно Правительство, блокирующее личную жизнь, интернет, нарушающее сохранность данных.
Все эти действия финансируются за счёт народа!