Игра в прятки / Hiding Out (Боб Джиральди / Bob Giraldi) [1987, США, Комедия, криминал, DVDRip] AVO (Леонид Володарский)

Reply to topic
DL-List and Torrent activity
Size:  1.28 GB   |    Registered:  4 years 6 months   |    Completed:  0 times
DL-List: None

Seeder not seen: 7 months 14 days

 
   
 
 
Author Message

star21 ®

Gender: Female

Longevity: 4 years 6 months

Posts: 551945

Location: Екатеринбург

Post 30-Nov-2015 05:53

[Quote]

Игра в прятки / Hiding Out
Страна: США
Жанр: Комедия, криминал
Год выпуска: 1987
Продолжительность: 01:39:15
Перевод: Авторский (одноголосый закадровый) Леонид Володарский
Cубтитры: нет
Режиссер: Боб Джиральди / Bob Giraldi
В ролях: Джон Крайер, Кит Куган, Аннабет Гиш, Оливер Коттон, Клод Брукс, Тим Куилл, Александра Одер, Тони Сопер, Нед Эйзенберг, Марита Герати
Описание: Молодой брокер (Джон Крайер) должен давать показания против мафии. После того, как гангстеры убивают агента ФБР, защищавшего его, он вынужден бежать и скрываться, спасая свою жизнь. Брокер перекрашивает волосы и выдает себя за студента, что не так просто, ибо уже будучи частью истэблишмента, трудно сразу усвоить легкость школяра. (М. Иванов)
Доп. информация: Дорожка с Л. Володарским синхронизирована, ремастерирована и наложена ale_x2008 при помощи iZotope RX2, Sony Vegas и VirtualDubMod.
За оцифрованную с VHS дорожку благодарим - Анна57
Внимание!!! В первой половине фильма качество звуковой дорожки хуже.

Релиз
Сэмпл: https://yadi.sk/i/ayPWUXMTj3DmV
Качество видео: DVDRip
Формат видео: AVI
Видео: 720x400 (1.80:1), 23.976 fps, XviD build 50 ~1650 kbps avg, 0.24 bit/pixel
Аудио: 48 kHz, AC3 Dolby Digital, 2/0 (L,R) ch, ~192 kbps

MediaInfo

Игра в прятки - Hiding Out (by ale_x2008).avi
Format : AVI
Format/Info : Audio Video Interleave
File size : 1.28 GiB
Duration : 1h 39mn
Overall bit rate : 1 852 Kbps
Movie name : Игра в прятки - Hiding Out (by ale_x2008)
Director : by ale_x2008
Writing application : VirtualDubMod 1.5.10.3 (build 2550/release)
Copyright : Edich2
Comment : RuTracker.org
Video
ID : 0
Format : MPEG-4 Visual
Format profile : Advanced Simple@L5
Format settings, BVOP : 1
Format settings, QPel : No
Format settings, GMC : No warppoints
Format settings, Matrix : Custom
Codec ID : XVID
Codec ID/Hint : XviD
Duration : 1h 39mn
Bit rate : 1 651 Kbps
Width : 720 pixels
Height : 400 pixels
Display aspect ratio : 16:9
Frame rate : 23.976 fps
Color space : YUV
Chroma subsampling : 4:2:0
Bit depth : 8 bits
Scan type : Progressive
Compression mode : Lossy
Bits/(Pixel*Frame) : 0.239
Stream size : 1.14 GiB (89%)
Writing library : XviD 1.2.1 (UTC 2008-12-04)
Audio
ID : 1
Format : AC-3
Format/Info : Audio Coding 3
Mode extension : CM (complete main)
Format settings, Endianness : Big
Codec ID : 2000
Duration : 1h 39mn
Bit rate mode : Constant
Bit rate : 192 Kbps
Channel(s) : 2 channels
Channel positions : Front: L R
Sampling rate : 48.0 KHz
Bit depth : 16 bits
Compression mode : Lossy
Stream size : 136 MiB (10%)
Alignment : Split accross interleaves
Interleave, duration : 42 ms (1.00 video frame)
Interleave, preload duration : 500 ms

To download the content you need:
1. Download and install torrent client [for Windows] or for mobile system
2. Click on [Download]
Attention.
If the test YOU are NOT a ROBOT - does not work, then You are using an outdated browser.
Install the current browser and click on [Download]

Do not work with Yandex browser. Uploading files to them is erroneous.
Security: torrent client is allowed by Kaspersky.

[en.asmlocator.ru].t4257.torrent 
Torrent: Registered [ 2015-11-30 05:45 ] · 0620330C62D700813E5296AC6CF00BD197C885EE

Download .torrent

Download

13 KB

Status: checked
Completed: 0 times
Size: 1.28 GB
terms.php
[Profile] [PM]
Display posts:    
Reply to topic

Current time is: 03-Jun 04:06

All times are UTC ± 0



You cannot post new topics in this forum
You cannot reply to topics in this forum
You cannot edit your posts in this forum
You cannot delete your posts in this forum
You cannot vote in polls in this forum
You cannot attach files in this forum
You can download files in this forum
Верим фактам, а не вранью Путина! Факт, что Правительство ведёт Россию к истреблению.
Так как численность населения падает, даже не смотря на приток эмигрантов!
Русская нация вымирает и вырождается, смешиваясь с эмигрантами!
Факт, что военных и граждан предприятий заставляют голосовать за партию Единая Россия и Путина
ПОД СТРАХОМ УВОЛЬНЕНИЯ!
Нам не нужно Правительство, блокирующее личную жизнь, интернет, нарушающее сохранность данных.
Все эти действия финансируются за счёт народа!