Я знаю, что ты знаешь / Io so che tu sai che io so (Alberto Sordi / Альберто Сорди) [1982, Италия, Комедия, драма, DVDRip] Dub + Sub Rus

Reply to topic
DL-List and Torrent activity
Size:  1.37 GB   |    Registered:  4 years 3 months   |    Completed:  0 times

Seeder not seen: Never

 
   
 
 
Author Message

star21 ®

Gender: Female

Longevity: 4 years 4 months

Posts: 551945

Location: Екатеринбург

Post 30-Nov-2015 05:53

[Quote]

Я знаю, что ты знаешь / Io so che tu sai che io so
Страна: Италия
Жанр: Комедия, драма
Год выпуска: 1982
Продолжительность: 01:47:54
Перевод: Профессиональный (дублированный)
Cубтитры: русские на вырезанные в прокате фрагменты
Оригинальная аудиодорожка: нет
Режиссер: Alberto Sordi / Альберто Сорди
В ролях: Альберто Сорди, Моника Витти, Изабелла Де Бернарди, Сальваторе Джаконо, Джузеппе Маннаджуоло. Ивана Монти, Микаела Пиньятелли, Клаудио Гора, Джан Франческо Айелло, Наполеоне Скрульи
Описание: Фабио Бонетти — преуспевающий служащий банка, интересующийся исключительно футболом и рыбалкой. Однажды он с удивлением замечает, что за его женой Ливией, на которой он женат уже почти 20 лет, следят. Выясняется, что слежку ведут по ошибке, но к Фабио в руки попадают пленки, запечатлевшие частную жизнь его жены, о которой он и не догадывался, и просмотр которых коренным образом меняет его мировозрение
Доп. информация: Релиз
DVDRip, синхронизация дорожки и перевод с итальянского вырезанных фрагментов Urasiko
Сэмпл: http://multi-up.com/1066193
Качество видео: DVDRip
Формат видео: AVI
Видео: XviD MPEG-4, 640x352 (1.82:1), 25 fps, 1615 kbps avg, 0.29 bit/pixe
Аудио: Русская: AC-3, 48 KHz, 192 Kbps, 2 channels
Формат субтитров: softsub (SRT)

MediaInfo

General
Complete name : E:\Io so che tu sai che io so\Io so che tu sai che io so Ru.avi
Format : AVI
Format/Info : Audio Video Interleave
File size : 1.37 GiB
Duration : 1h 47mn
Overall bit rate : 1 817 Kbps
Writing application : VirtualDubMod 1.5.10.2 (build 2540/release)
Writing library : VirtualDubMod build 2540/release
Video
ID : 0
Format : MPEG-4 Visual
Format profile : Advanced Simple@L5
Format settings, BVOP : 1
Format settings, QPel : No
Format settings, GMC : No warppoints
Format settings, Matrix : Custom
Codec ID : XVID
Codec ID/Hint : XviD
Duration : 1h 47mn
Bit rate : 1 616 Kbps
Width : 640 pixels
Height : 352 pixels
Display aspect ratio : 16:9
Frame rate : 25.000 fps
Color space : YUV
Chroma subsampling : 4:2:0
Bit depth : 8 bits
Scan type : Progressive
Compression mode : Lossy
Bits/(Pixel*Frame) : 0.287
Stream size : 1.22 GiB (89%)
Writing library : XviD 64
Audio
ID : 1
Format : AC-3
Format/Info : Audio Coding 3
Mode extension : CM (complete main)
Format settings, Endianness : Big
Codec ID : 2000
Duration : 1h 47mn
Bit rate mode : Constant
Bit rate : 192 Kbps
Channel(s) : 2 channels
Channel positions : Front: L R
Sampling rate : 48.0 KHz
Bit depth : 16 bits
Compression mode : Lossy
Stream size : 148 MiB (11%)
Alignment : Split accross interleaves
Interleave, duration : 40 ms (1.00 video frame)
Interleave, preload duration : 500 ms

Скриншот c названием фильма

Скриншоты

Пример субтитров

71
00:29:33,880 --> 00:29:38,260
Кавалли, у моей жены нет никакой
личной жизни. Поймите это.
72
00:29:38,360 --> 00:29:40,931
И не звоните больше в банк,
я здесь не один.
73
00:29:40,960 --> 00:29:44,191
Я исколесил за ней много километров
и снял много интересного.
74
00:29:44,200 --> 00:29:47,749
Каждой женщине, даже очень
честной, есть что скрьвать...
75
00:32:27,200 --> 00:32:30,021
У каждого приезжающего
проверяй регистрацию. Давай.
76
00:32:30,160 --> 00:32:32,492
Из Лондона сообщает
Сандро Патерностро.
77
00:32:32,640 --> 00:32:35,950
Известньй итальянский финансовьй
магнат Лоренцо Витали
78
00:32:36,000 --> 00:32:39,310
бьл найден мёртвьм
в своем номере,
79
00:32:39,360 --> 00:32:41,316
в большом отеле Лондона.
80
00:32:41,440 --> 00:32:44,386
Мь находимся в квартире
доктора Витали,
81
00:32:44,400 --> 00:32:45,867
во дворце ХIII века,
82
00:32:45,920 --> 00:32:48,980
в самом центре старого Рима,
на берегу Тибра.
83
00:32:50,680 --> 00:32:54,309
- Стой! Куда едешь? - Как?
- Пропусти его, это жилец.
84
00:32:54,400 --> 00:32:56,686
- Проезжайте.
- А в чём дело?
85
00:32:56,720 --> 00:32:59,052
- В чём дело?
- Убийство. - Проезжай.
86
00:33:03,400 --> 00:33:06,107
Телевидение?
Должно быть, какая-то ошибка!
87
00:33:06,120 --> 00:33:08,941
Я доктор Бонетти,
служащий банка...
88
00:33:08,960 --> 00:33:11,451
первым дам интервью для ТВ.
89
00:33:18,840 --> 00:33:22,765
Когда я возвращался домой с работы
из банка,
90
00:33:22,760 --> 00:33:26,844
при въезде меня остановили карабинеры.
Вот они! Стойте!
91
00:33:29,320 --> 00:33:30,628
Вот они! Приготовьтесь!
92
00:35:27,800 --> 00:35:31,349
Наоборот, мы должны игнорировать,

To download the content you need:
1. Download and install torrent client [for Windows] or for mobile system
2. Click on [Download]
Attention.
If the test YOU are NOT a ROBOT - does not work, then You are using an outdated browser.
Install the current browser and click on [Download]

Do not work with Yandex browser. Uploading files to them is erroneous.
Security: torrent client is allowed by Kaspersky.

[en.asmlocator.ru].t4251.torrent 
Torrent: Registered [ 2015-11-30 05:45 ] · 2970628C48CD72926D147D34DCCE9DED02131CD8

Download .torrent

Download

14 KB

Status: checked
Completed: 0 times
Size: 1.37 GB
terms.php
[Profile] [PM]
Display posts:    
Reply to topic

Current time is: 29-Mar 23:57

All times are UTC ± 0



You cannot post new topics in this forum
You cannot reply to topics in this forum
You cannot edit your posts in this forum
You cannot delete your posts in this forum
You cannot vote in polls in this forum
You cannot attach files in this forum
You can download files in this forum
Верим фактам, а не вранью Путина! Факт, что Правительство ведёт Россию к истреблению.
Так как численность населения падает, даже не смотря на приток эмигрантов!
Русская нация вымирает и вырождается, смешиваясь с эмигрантами!
Факт, что военных и граждан предприятий заставляют голосовать за партию Единая Россия и Путина
ПОД СТРАХОМ УВОЛЬНЕНИЯ!
Нам не нужно Правительство, блокирующее личную жизнь, интернет, нарушающее сохранность данных.
Все эти действия финансируются за счёт народа!