Видение / The Dreaming (Марио Андриакио / Mario Andreacchio) [1988, Австралия, Триллер, ужасы, мистика, DVDRip] DVO

Reply to topic
DL-List and Torrent activity
Size:  750 MB   |    Registered:  4 years 4 months   |    Completed:  0 times

Seeder not seen: Never

 
   
 
 
Author Message

star21 ®

Gender: Female

Longevity: 4 years 4 months

Posts: 551945

Location: Екатеринбург

Post 30-Nov-2015 05:53

[Quote]

Видение / The Dreaming
Страна: Австралия
Жанр: Триллер , ужасы , мистика
Год выпуска: 1988
Продолжительность: 1:26:08
Перевод: Профессиональный (двухголосый закадровый)
Cубтитры: нет
Режиссер: Марио Андриакио / Mario Andreacchio
В ролях: Артур Дигнам, Пенни Кук, Гари Свит, Лоуренс Клиффорд, Kristina Nehm, Патрик Фрост, Джон Ноубл, Питер Мэрилл, Дебора Литтл, Лео Тейлор
Описание: 200 лет назад по океанам странствовали китобои. В Австралии одна группа китобоев столкнулась с местными жителями, которые практиковали тайную силу, называемую «Видением». Это знание, передававшееся из поколения в поколение от начала времен. Китобои были очень кровожадными людьми, и началась резня, убийства и насилие. Это наложило отпечаток на «Видение», которое продолжает жить и в настоящее время, превратившись в кошмар.
Доп. информация: Дорога синхронизирована из раздачи MacSim47
Сэмпл: https://www.sendspace.com/file/ggvfbi
Качество видео: DVDRip
Формат видео: AVI
Видео: XviD MPEG-4 , 496x368 (1.35:1) ,25.000 fps , 1 016 Kbps
Аудио: AC3 , 48 kHz , 192.00 kbps avg , 2/0 (L,R) ch

MediaInfo

Complete name Видение 1988.avi
Format : AVI
Format/Info : Audio Video Interleave
File size : 750 MiB
Duration : 1h 26mn
Overall bit rate : 1 218 Kbps
Writing application : VirtualDubMod 1.5.4.1 (build 2178/release)
Writing library : VirtualDub build 35491/release
Video
ID : 0
Format : MPEG-4 Visual
Format profile : Advanced Simple@L5
Format settings, BVOP : 1
Format settings, QPel : No
Format settings, GMC : No warppoints
Format settings, Matrix : Custom
Codec ID : XVID
Codec ID/Hint : XviD
Duration : 1h 26mn
Bit rate : 1 016 Kbps
Width : 496 pixels
Height : 368 pixels
Display aspect ratio : 4:3
Frame rate : 25.000 fps
Color space : YUV
Chroma subsampling : 4:2:0
Bit depth : 8 bits
Scan type : Progressive
Compression mode : Lossy
Bits/(Pixel*Frame) : 0.223
Stream size : 626 MiB (83%)
Writing library : XviD 1.1.0 (UTC 2005-11-22)
Audio
ID : 1
Format : AC-3
Format/Info : Audio Coding 3
Mode extension : CM (complete main)
Format settings, Endianness : Big
Codec ID : 2000
Duration : 1h 26mn
Bit rate mode : Constant
Bit rate : 192 Kbps
Channel(s) : 2 channels
Channel positions : Front: L R
Sampling rate : 48.0 KHz
Compression mode : Lossy
Stream size : 118 MiB (16%)
Alignment : Aligned on interleaves
Interleave, duration : 40 ms (1.00 video frame)
Interleave, preload duratio : 512 ms

To download the content you need:
1. Download and install torrent client [for Windows] or for mobile system
2. Click on [Download]
Attention.
If the test YOU are NOT a ROBOT - does not work, then You are using an outdated browser.
Install the current browser and click on [Download]

Do not work with Yandex browser. Uploading files to them is erroneous.
Security: torrent client is allowed by Kaspersky.

[en.asmlocator.ru].t4250.torrent 
Torrent: Registered [ 2015-11-30 05:45 ] · BDDF4497B12A5CC7DFED7FD93A319742BC83B561

Download .torrent

Download

15 KB

Status: checked
Completed: 0 times
Size: 750 MB
terms.php
[Profile] [PM]
Display posts:    
Reply to topic

Current time is: 03-Apr 04:09

All times are UTC ± 0



You cannot post new topics in this forum
You cannot reply to topics in this forum
You cannot edit your posts in this forum
You cannot delete your posts in this forum
You cannot vote in polls in this forum
You cannot attach files in this forum
You can download files in this forum
Верим фактам, а не вранью Путина! Факт, что Правительство ведёт Россию к истреблению.
Так как численность населения падает, даже не смотря на приток эмигрантов!
Русская нация вымирает и вырождается, смешиваясь с эмигрантами!
Факт, что военных и граждан предприятий заставляют голосовать за партию Единая Россия и Путина
ПОД СТРАХОМ УВОЛЬНЕНИЯ!
Нам не нужно Правительство, блокирующее личную жизнь, интернет, нарушающее сохранность данных.
Все эти действия финансируются за счёт народа!