Борис I. Последний язычник / Борис I. Последният езичник / Boris I (Борислав Шаралиев / Borislav Sharaliev) [1984 г., Болгария, Исторический, DVDRip] DVO + Sub

Reply to topic
DL-List and Torrent activity
Size:  1.35 GB   |    Registered:  4 years 3 months   |    Completed:  0 times

Seeder not seen: 3 months 11 days

 
   
 
 
Author Message

star21 ®

Gender: Female

Longevity: 4 years 4 months

Posts: 551945

Location: Екатеринбург

Post 30-Nov-2015 05:53

[Quote]

Борис I. Последний язычник / Борис I. Последният езичник / Boris I
Страна: Болгария
Жанр: Исторический
Год выпуска: 1984
Продолжительность: 02:21:06
Перевод: Профессиональный (двухголосый закадровый) - СВ-Дубль
Перевод 2: Субтитры
Cубтитры: русские
Оригинальная аудиодорожка: нет
Режиссер: Борислав Шаралиев / Borislav Sharaliev
В ролях: Стефан Данаилов, Антоний Генов, Коста Цонев, Борис Луканов, Венцислав Кисёв, Анета Петровска, Пламен Дончев, Янина Кашева, Петар Петров, Иван Иванов, Стоян Стоев, Николай Киссуров, Димитр Дмитров, Марио Крастев, Борислав Костов, Александр Александров, Кирил Стаменов, Никола Дачев, Михаил Гетсов, Сильви Ангелов, Петко Беров, Методий Атанасов, Энчо Энчев, Любомир Димов, Петко Тодоров, Владимир Манолов, Стефан Пеев
Описание: Лето 6371 года от сотворения мира, а от Христа 863 год. Хан болгаров был Борис. И с большой силой налетели враги, и воевал Борис 10 лет...
Вторая половина 9-го века Молодой хан болгар Борис I объединил в одну державу два народа - болгар и славян. Он понимает, что укрепить государство ему поможет религия. И он совершает знаменательное событие - крещение. Князь Борис так-же понимает и другое - для государства необходим единый язык и письменность. Он приглашает учеников равноапостольных Кирилла и Мефодия для создания Орхидской и Преславской книжной школы.
Доп. информация: Рип сделан с этого исходника:
Это сокращённый вариант фильма. Полный вариант раздаётся здесь:
Сэмпл: https://www.sendspace.com/file/7hkgdd
Качество видео: DVDRip
Формат видео: AVI
Видео: 1233 Кбит/сек, 720*320 (2,25:1), 25,000 кадров/сек, XviD
Аудио: Русский, 128 Кбит/сек, 48,0 КГц, 2 канала, MP3
Формат субтитров: prerendered (IDX+SUB)
Доп. информация о субтитрах: русские

MediaInfo

ОбщееПолное имя                               : L:\Monar.ru\Видео\Художественные фильмы\Зарубежное кино\Борис I. Последний язычник (1984) DVDRip\Борис I. Последний язычник (1984).aviФормат                                   : AVIФормат/Информация                        : Audio Video InterleaveРазмер файла                             : 1,35 ГбайтПродолжительность                        : 2 ч. 21 м.Общий поток                              : 1371 Кбит/сек
ВидеоИдентификатор : 0Формат : MPEG-4 VisualПрофиль формата : Advanced Simple@L5Параметр BVOP формата : 2Параметр QPel формата : НетПараметр GMC формата : Без точки переходаПараметр матрицы формата : Default (H.263)Идентификатор кодека : XVIDИдентификатор кодека/Подсказка : XviDПродолжительность : 2 ч. 21 м.Битрейт : 1233 Кбит/секШирина : 720 пикселейВысота : 320 пикселейСоотношение сторон : 2,25:1Частота кадров : 25,000 кадров/секЦветовое пространство : YUVСубдискретизация насыщенности : 4:2:0Битовая глубина : 8 битТип развёртки : ПрогрессивнаяМетод сжатия : С потерямиБит/(Пиксели*Кадры) : 0.214Размер потока : 1,22 Гбайт (90%)Библиотека кодирования : XviD 1.2.1 (UTC 2008-12-04)
АудиоИдентификатор : 1Формат : MPEG AudioВерсия формата : Version 1Профиль формата : Layer 3Идентификатор кодека : 55Идентификатор кодека/Подсказка : MP3Продолжительность : 2 ч. 21 м.Продолжительность оригинала : 2 ч. 21 м.Вид битрейта : ПостоянныйБитрейт : 128 Кбит/секКаналы : 2 каналаЧастота : 48,0 КГцМетод сжатия : С потерямиРазмер потока : 129 Мбайт (9%)Выравнивание : Соединение по промежуткамПродолжительность промежутка : 40 мс. (1,00 видеокадр)Библиотека кодирования : LAMEЄЄђcp'ѓ`АJX¶3

Фрагмент субтитров

101:10:35,700 --> 01:10:40,979Ни с места! Головы будут падать!
201:10:42,380 --> 01:10:48,489Ты сказал, Борис, ты сказал: я свершудело без капли крови
301:10:49,700 --> 01:10:54,057Ты сказал, помнишь князь...
401:10:54,300 --> 01:11:00,819что твой меч в крест превратишь,а превратил крест свой в меч!
501:11:02,940 --> 01:11:08,572И не против врагов чужих,а против болгаров своих.
601:11:10,020 --> 01:11:14,650Посмотри на свои ноги, посмотри на свои руки,
701:11:15,780 --> 01:11:23,414и пусть Бог тебе простит... и Тангра...
801:11:24,460 --> 01:11:28,419и наш новый Бог...
901:11:47,020 --> 01:11:53,892Бедный мой Етх, одноглазый друг мой,
1001:11:54,260 --> 01:11:58,492ты ли меня не понялили я тебя не понял?
1101:11:59,020 --> 01:12:03,969Бог видит, все что делаю,делаю ради нее,
1201:12:05,380 --> 01:12:10,329ради милой земли нашей...
1301:12:17,380 --> 01:12:22,977Да будет захоронен, как павший в бою.
1401:12:24,540 --> 01:12:28,055Да будет похоронен, как славный христианин.
1501:12:28,940 --> 01:12:32,569Да будет оплакан всем родом болгарским..
1601:12:33,380 --> 01:12:37,896Да будет умыт всеми рекамиДанастором и Дунаем,
1701:12:39,100 --> 01:12:42,251Струмой, Марицой и Вардаром.
1801:12:43,020 --> 01:12:48,014Да будет захоронен в болгарском лесу,возле болгарского дуба
1901:12:49,020 --> 01:12:53,571и под болгарским камнем.
2001:13:11,460 --> 01:13:15,135Два захоронения, брат,два захоронения будут.

Скриншот c названием фильма

Скриншоты

История перезаливов

01.12.13 Торрент-файл перезалит. Оригинальная дорога заменена любительской двухголосой озвучкой.
08.09.15 Торрент-файл перезалит. Добавлена профессиональная двухголосая озвучка. Сэмпл и отчёт перезалиты.
13.09.15 Торрент-файл перезалит. Любительская двухголосая озвучка удалена. Сэмпл и отчёт перезалиты.

To download the content you need:
1. Download and install torrent client [for Windows] or for mobile system
2. Click on [Download]
Attention.
If the test YOU are NOT a ROBOT - does not work, then You are using an outdated browser.
Install the current browser and click on [Download]

Do not work with Yandex browser. Uploading files to them is erroneous.
Security: torrent client is allowed by Kaspersky.

[en.asmlocator.ru].t4248.torrent 
Torrent: Registered [ 2015-11-30 05:45 ] · 454B2229A284FAEE3B404EBA9E5BD89493EED0A3

Download .torrent

Download

14 KB

Status: checked
Completed: 0 times
Size: 1.35 GB
terms.php
[Profile] [PM]
Display posts:    
Reply to topic

Current time is: 29-Mar 00:18

All times are UTC ± 0



You cannot post new topics in this forum
You cannot reply to topics in this forum
You cannot edit your posts in this forum
You cannot delete your posts in this forum
You cannot vote in polls in this forum
You cannot attach files in this forum
You can download files in this forum
Верим фактам, а не вранью Путина! Факт, что Правительство ведёт Россию к истреблению.
Так как численность населения падает, даже не смотря на приток эмигрантов!
Русская нация вымирает и вырождается, смешиваясь с эмигрантами!
Факт, что военных и граждан предприятий заставляют голосовать за партию Единая Россия и Путина
ПОД СТРАХОМ УВОЛЬНЕНИЯ!
Нам не нужно Правительство, блокирующее личную жизнь, интернет, нарушающее сохранность данных.
Все эти действия финансируются за счёт народа!