Запасной, на старт! / Rezerva la start (Ангел Мора / Anghel Mora) [1988, Румыния, Спортивная драма, VHSRip] DVO (киностудия Довженко)

Reply to topic
DL-List and Torrent activity
Size:  773 MB   |    Registered:  4 years 4 months   |    Completed:  0 times

Seeder not seen: Never

 
   
 
 
Author Message

star21 ®

Gender: Female

Longevity: 4 years 5 months

Posts: 551945

Location: Екатеринбург

Post 30-Nov-2015 05:53

[Quote]

Запасной, на старт! / Rezerva la start
Страна: Румыния
Жанр: Спортивная драма
Год выпуска: 1988
Продолжительность: 01:14:10
Перевод: Профессиональный (двухголосый закадровый)
Cубтитры: нет
Оригинальная аудиодорожка: нет
Режиссер: Ангел Мора / Anghel Mora
В ролях: Михаил Стан, Джордже Александру, Богдан Станоевич, Таня Филип, Флорентин Дусе, Мирча Анка, Ион Роксин, Георге Чапо, Виржил Андриеску, Тудорел Филимон и др.
Фильм озвучен на киностудии им. А.Довженко в 1989 г.
Режиссер озвучания и автор литературного перевода – Владимир Довгань,
звукооператор – Наталия Серга, редактор – Вячеслав Подолужный.
Текст читали: Ирина Мельник и Владислав Пупков

Описание: Спортивный фильм о сложных проблемах в команде пятиборцев, о том, как молодому спортсмену, резервисту команды Симиону, приходится доказывать свое право выступать за сборную страны.
Доп. информация:
Релиз
Искренняя благодарность persona1 и leonila за рип фильма!
Сэмпл: http://multi-up.com/1066286
Качество видео: VHSRip
Формат видео: AVI
Видео: 640x480 (4:3), 25 fps, XviD, 1319 Кбит/сек
Аудио: 128 Кбит/сек, 2 канала, 16 бит, 44,1 КГц, mp3 - DVO (киностудия Довженко)

MediaInfo

Формат : AVI
Формат/Информация : Audio Video Interleave
Размер файла : 773 Мбайт
Продолжительность : 1 ч. 14 м.
Общий поток : 1457 Кбит/сек
Программа кодирования : VirtualDubMod 1.5.10.2 (build 2540/release)
Библиотека кодирования : VirtualDubMod build 2540/release
Видео
Идентификатор : 0
Формат : MPEG-4 Visual
Профиль формата : Advanced Simple@L5
Параметр BVOP формата : 2
Параметр QPel формата : Нет
Параметр GMC формата : Без точки перехода
Параметр матрицы формата : Default (H.263)
Идентификатор кодека : XVID
Идентификатор кодека/Подсказка : XviD
Продолжительность : 1 ч. 14 м.
Битрейт : 1319 Кбит/сек
Ширина : 640 пикселей
Высота : 480 пикселей
Соотношение сторон : 4:3
Частота кадров : 25,000 кадров/сек
Цветовое пространство : YUV
Субдискретизация насыщенности : 4:2:0
Битовая глубина : 8 бит
Тип развёртки : Прогрессивная
Метод сжатия : С потерями
Бит/(Пиксели*Кадры) : 0.172
Размер потока : 700 Мбайт (91%)
Библиотека кодирования : XviD 1.2.0.dev47 (UTC 2006-11-01)
Аудио
Идентификатор : 1
Формат : MPEG Audio
Версия формата : Version 1
Профиль формата : Layer 3
Режим : Joint stereo
Расширение режима : MS Stereo
Идентификатор кодека : 55
Идентификатор кодека/Подсказка : MP3
Продолжительность : 1 ч. 14 м.
Вид битрейта : Постоянный
Битрейт : 128 Кбит/сек
Каналы : 2 канала
Частота : 44,1 КГц
Метод сжатия : С потерями
Размер потока : 67,9 Мбайт (9%)
Выравнивание : Разделение по промежуткам
Продолжительность промежутка : 40 мс. (1,00 видеокадр)
Время предзагрузки промежутка : 500 мс.

Скриншот c названием фильма

To download the content you need:
1. Download and install torrent client [for Windows] or for mobile system
2. Click on [Download]
Attention.
If the test YOU are NOT a ROBOT - does not work, then You are using an outdated browser.
Install the current browser and click on [Download]

Do not work with Yandex browser. Uploading files to them is erroneous.
Security: torrent client is allowed by Kaspersky.

[en.asmlocator.ru].t4247.torrent 
Torrent: Registered [ 2015-11-30 05:45 ] · 4E466326907A1C49033CF2201414C8BB06FABC1A

Download .torrent

Download

16 KB

Status: checked
Completed: 0 times
Size: 773 MB
terms.php
[Profile] [PM]
Display posts:    
Reply to topic

Current time is: 10-Apr 10:05

All times are UTC ± 0



You cannot post new topics in this forum
You cannot reply to topics in this forum
You cannot edit your posts in this forum
You cannot delete your posts in this forum
You cannot vote in polls in this forum
You cannot attach files in this forum
You can download files in this forum
Верим фактам, а не вранью Путина! Факт, что Правительство ведёт Россию к истреблению.
Так как численность населения падает, даже не смотря на приток эмигрантов!
Русская нация вымирает и вырождается, смешиваясь с эмигрантами!
Факт, что военных и граждан предприятий заставляют голосовать за партию Единая Россия и Путина
ПОД СТРАХОМ УВОЛЬНЕНИЯ!
Нам не нужно Правительство, блокирующее личную жизнь, интернет, нарушающее сохранность данных.
Все эти действия финансируются за счёт народа!