Короткое Замыкание / Short Circuit (Джон Бэдэм / John Badham) [1986, США, фантастика, комедия, семейный, BDRip] MVO (СТС) + AVO (Дольский) + AVO (2хКузнецов)

Reply to topic
DL-List and Torrent activity
Size:  1.72 GB   |    Registered:  4 years 4 months   |    Completed:  1 time

Seeder not seen: 5 months 16 days

 
   
 
 
Author Message

star21 ®

Gender: Female

Longevity: 4 years 4 months

Posts: 551945

Location: Екатеринбург

Post 30-Nov-2015 05:53

[Quote]

Короткое Замыкание / Short Circuit-Военный робот вышел из под-контроля.
Он больше не хочет быть оружием.
Он хочет любить и наслаждаться жизнью.
Теперь у него всё как у людей - дом, семья, работа и враги.
- Год выпуска: 1986
Страна: США
Жанр: фантастика, комедия, семейный
Продолжительность: 01:38:34
Перевод: Профессиональный (многоголосый закадровый) - СТС
Перевод 2: Авторский (одноголосый закадровый) - Андрей Дольский
Перевод 3: Авторский (одноголосый закадровый) - Сергей Кузнецов (ранний)
Перевод 4: Авторский (одноголосый закадровый) - Сергей Кузнецов (поздний)
Cубтитры: нет
Режиссер: Джон Бэдэм / John Badham
В ролях: Элли Шиди (Stephanie Speck), Стив Гуттенберг (Newton Crosby), Фишер Стивенс (Ben Jabituya), Остин Пендлтон (Howard Marner), Дж. У. Бейли (Skroeder), Брайан МакНамара (Frank), Тим Блэйни (Number 5), Марвин Дж. МакИнтайр (Duke), Джон Гарбер (Otis), Пенни Сантон (Mrs. Cepeda)-Мировая премьера: 9 мая 1986-Описание: Разряд молнии попадает в робота под номером 5, и он оживает наподобие создания Франкенштейна. Вся штука в том, что его создатель и те, кто замыслил использовать робота в военных целях, не подозревали даже, какой могучий заряд человеколюбия и добра заложен в этой, казалось бы, безмозглой и бессердечной железяке.-Огромная благодарность:
- .
- собственная запись перевода с телеканала СТС в начале 2000-х годов через видеомагнитофон и оцифровка с видеокассеты.
- собственная оцифровка Дольского со своей видеокассеты.
- собственная оцифровка Кузнецова (раннего) со своей видеокассеты.
- собственная оцифровка Кузнецова (позднего) со своей видеокассеты.
- синхронизация переводов.-Данные переводы на трекере появляются впервые.
Перевод телеканала СТС к сожалению не полный, есть 5 вставок перевода Инис в тех эпизодах с речью, которые были пропущены во время записи из за реклам.-На русский язык фильм озвучен объединением "Русский Дубляж" по заказу СТС в 2002 году.
Текст читают Сергей Быстрицкий, Всеволод Кузнецов и Светлана Старикова.-Рейтинг

MPAA: PG - Рекомендуется присутствие родителей.-Качество видео: BDRip
Формат видео: AVI -> //СЭМПЛ//
Видео: XviD, 704x288 (2,40:1), 23.976 fps, 1716 kbps avg
Аудио:
1 - 48 khz, AC3 Dolby Digital, 2/0 (L,R) ch, ~192 kbps [СТС] VHSRip
2 - 48 khz, AC3 Dolby Digital, 2/0 (L,R) ch, ~192 kbps [Дольский] VHSRip
3 - 48 khz, AC3 Dolby Digital, 2/0 (L,R) ch, ~192 kbps [Кузнецов (ранний)] VHSRip отдельным файлом
4 - 48 khz, AC3 Dolby Digital, 2/0 (L,R) ch, ~192 kbps [Кузнецов (поздний)] VHSRip отдельным файлом-Обновление релиза от 14.09.2015. Причина:
Добавлен в раздачу раритетный для трекера перевод с телеканала СТС.
Просьба перескачать торрент!

MediaInfo

General
Complete name : E:\Торрент Файлы\Будущие Релизы на Трекере\1.35 - 1.46 и более гб\Короткое Замыкание (СТС + Дольский + 2хКузнецов)\Короткое Замыкание (СТС + Дольский).avi
Format : AVI
Format/Info : Audio Video Interleave
File size : 1.46 GiB
Duration : 1h 38mn
Overall bit rate : 2 115 Kbps
Movie name : Короткое замыкание / Short Circuit (1986) BDRip
Director : Orbit
Writing application : VirtualDubMod 1.5.10.3 | www.virtualdub-fr.org || (build 2550/release)
Writing library : VirtualDubMod build 2550/release
Video
ID : 0
Format : MPEG-4 Visual
Format profile : Advanced Simple@L5
Format settings, BVOP : 1
Format settings, QPel : No
Format settings, GMC : No warppoints
Format settings, Matrix : Custom
Codec ID : XVID
Codec ID/Hint : XviD
Duration : 1h 38mn
Bit rate : 1 716 Kbps
Width : 704 pixels
Height : 288 pixels
Display aspect ratio : 2.40:1
Frame rate : 23.976 fps
Color space : YUV
Chroma subsampling : 4:2:0
Bit depth : 8 bits
Scan type : Progressive
Compression mode : Lossy
Bits/(Pixel*Frame) : 0.353
Stream size : 1.18 GiB (81%)
Writing library : XviD 63
Audio #1
ID : 1
Format : AC-3
Format/Info : Audio Coding 3
Mode extension : CM (complete main)
Format settings, Endianness : Big
Codec ID : 2000
Duration : 1h 38mn
Bit rate mode : Constant
Bit rate : 192 Kbps
Channel(s) : 2 channels
Channel positions : Front: L R
Sampling rate : 48.0 KHz
Compression mode : Lossy
Stream size : 135 MiB (9%)
Alignment : Split accross interleaves
Interleave, duration : 42 ms (1.00 video frame)
Interleave, preload duratio : 500 ms
Audio #2
ID : 2
Format : AC-3
Format/Info : Audio Coding 3
Mode extension : CM (complete main)
Format settings, Endianness : Big
Codec ID : 2000
Duration : 1h 38mn
Bit rate mode : Constant
Bit rate : 192 Kbps
Channel(s) : 2 channels
Channel positions : Front: L R
Sampling rate : 48.0 KHz
Compression mode : Lossy
Stream size : 135 MiB (9%)
Alignment : Split accross interleaves
Interleave, duration : 42 ms (1.00 video frame)
Interleave, preload duratio : 500 ms

Скриншот c названием фильма

Скриншоты

To download the content you need:
1. Download and install torrent client [for Windows] or for mobile system
2. Click on [Download]
Attention.
If the test YOU are NOT a ROBOT - does not work, then You are using an outdated browser.
Install the current browser and click on [Download]

Do not work with Yandex browser. Uploading files to them is erroneous.
Security: torrent client is allowed by Kaspersky.

[en.asmlocator.ru].t4245.torrent 
Torrent: Registered [ 2015-11-30 05:45 ] · 42EE1F207933441DCAF11C36FA26CDDB61A8869F

Download .torrent

Download

18 KB

Status: checked
Completed: 1 times
Size: 1.72 GB
terms.php
[Profile] [PM]
Display posts:    
Reply to topic

Current time is: 05-Apr 03:22

All times are UTC ± 0



You cannot post new topics in this forum
You cannot reply to topics in this forum
You cannot edit your posts in this forum
You cannot delete your posts in this forum
You cannot vote in polls in this forum
You cannot attach files in this forum
You can download files in this forum
Верим фактам, а не вранью Путина! Факт, что Правительство ведёт Россию к истреблению.
Так как численность населения падает, даже не смотря на приток эмигрантов!
Русская нация вымирает и вырождается, смешиваясь с эмигрантами!
Факт, что военных и граждан предприятий заставляют голосовать за партию Единая Россия и Путина
ПОД СТРАХОМ УВОЛЬНЕНИЯ!
Нам не нужно Правительство, блокирующее личную жизнь, интернет, нарушающее сохранность данных.
Все эти действия финансируются за счёт народа!