Короткое Замыкание 2 / Short Circuit 2 (Кеннет Джонсон / Kenneth Johnson) [1988, США, фантастика, комедия, семейный, BDRip] MVO (СТС) + MVO (Первый Канал) + AVO (Дольский) + AVO (2хКузнецов)

Reply to topic
DL-List and Torrent activity
Size:  2.48 GB   |    Registered:  4 years 4 months   |    Completed:  1 time

Seeder not seen: 5 months 16 days

 
   
 
 
Author Message

star21 ®

Gender: Female

Longevity: 4 years 4 months

Posts: 551945

Location: Екатеринбург

Post 30-Nov-2015 05:53

[Quote]

Короткое Замыкание 2 / Short Circuit 2
Год выпуска: 1988
Страна: США
Жанр: фантастика, комедия, семейный
Продолжительность: 01:50:25
Перевод: Профессиональный (многоголосый закадровый) - СТС
Перевод 2: Профессиональный (многоголосый закадровый) - Первый Канал
Перевод 3: Авторский (одноголосый закадровый) - Андрей Дольский
Перевод 4: Авторский (одноголосый закадровый) - Сергей Кузнецов (ранний)
Перевод 5: Авторский (одноголосый закадровый) - Сергей Кузнецов (поздний)
Cубтитры: нет
Режиссер: Кеннет Джонсон / Kenneth Johnson
В ролях: Фишер Стивенс (Ben Jahveri), Майкл МакКин (Fred Ritter), Синтия Гибб (Sandy Banatoni), Тим Блэйни (Johnny Five), Джек Уэстон (Oscar Baldwin), Ди МакКафферти (Saunders), Дэвид Хемблен (Jones), Дон Лейк (Manic Mike), Дэймон Д'Оливейра (Bones), Тито Нуньес (Zorro)-Мировая премьера: 9 мая 1986-Описание: Бен Джарви, по происхождению индиец, а по профессии — изобретатель-конструктор роботов, вынужден работать уличным торговцем. В первом фильме его отстранили от работы после инцидента с созданным им роботом Номер пять. Теперь Бен оказался на мели, он вынужден жить в фургончике и делать игрушечных роботов для продажи на улице. Эти роботы все, как один, похожи на Номера пять, но только дизайном….. Номер пять обрел личность благодаря короткому замыканию, а эти малыши — всего лишь бездушные игрушки. Маленькие роботы привлекают внимание сотрудницы известного магазина игрушек и она делает Бену выгодное предложение — к Рождеству он должен собрать тысячу таких роботов и продать магазину оптом. Предприимчивый американец советует Бену принять выгодное предложение и обещает помочь ему в выполнении заказа. Бен заключает сделку. Вместе со своим компаньоном он арендует рабочий цех и привлекает помощников. Приезжает и Номер пять, чтобы помочь своему создателю и другу Бену. Бен выбирает неудачное место для работы: этажом ниже находится целая банда преступников. Это грабители банков, они роют подземный ход в хранилище, где содержится коллекция бриллиантов. Появление Бена и его помощников может сорвать подготовку к ограблению, поэтому грабители принимают решение избавиться от нежелательных соседей…-Огромная благодарность:
- .
- собственная запись перевода с телеканала СТС в начале 2000-х годов через видеомагнитофон и оцифровка с видеокассеты.
- собственная запись перевода с Первого Канала в середине 2000-х годов через спутник.
- собственная оцифровка Дольского со своей видеокассеты.
- собственная оцифровка Кузнецова (раннего) со своей видеокассеты.
- собственная оцифровка Кузнецова (позднего) со своей видеокассеты.
- синхронизация переводов.-Данные переводы на трекере появляются впервые.
Перевод телеканала СТС к сожалению не полный, есть 3 вставки перевода Первого Канала в тех эпизодах с речью, которые были пропущены во время записи из за реклам. А у перевода Первого Канала также отсуствует начало до 00:06:31, в нём вставлен дубляж от Варус Видео.-На русский язык фильм озвучен объединением "Русский Дубляж" по заказу СТС в 2002 году.
Текст читают Сергей Быстрицкий, Всеволод Кузнецов и Светлана Старикова.
На русский язык фильм озвучен по заказу Первого Канала.
Текст читают Михаил Тихонов, Марина Тарасова, Рудольф Панков и Олег Куценко.-Рейтинг

MPAA: PG - Рекомендуется присутствие родителей.-Качество видео: BDRip
Формат видео: AVI -> //СЭМПЛ//
Видео: XviD, 704x384 (1,85:1), 23.976 fps, 2230 kbps avg
Аудио:
1 - 48 khz, AC3 Dolby Digital, 2/0 (L,R) ch, ~192 kbps [СТС] VHSRip
2 - 48 khz, AC3 Dolby Digital, 2/0 (L,R) ch, ~192 kbps [Первый Канал] SATRip
3 - 48 khz, AC3 Dolby Digital, 2/0 (L,R) ch, ~192 kbps [Дольский] VHSRip
4 - 48 khz, AC3 Dolby Digital, 2/0 (L,R) ch, ~192 kbps [Кузнецов (ранний)] VHSRip отдельным файлом
5 - 48 khz, AC3 Dolby Digital, 2/0 (L,R) ch, ~192 kbps [Кузнецов (поздний)] VHSRip отдельным файлом-Обновление релиза от 14.09.2015. Причина:
Добавлены в раздачу два раритетных перевода с телеканалов СТС и Первый Канал. Дубляж от Варуса я решил убрать, поскольку на трекере он уже есть.
Просьба перескачать торрент!

MediaInfo

General
Complete name : E:\Торрент Файлы\Будущие Релизы на Трекере\2.05 - 2.20 и более гб\Короткое Замыкание 2 (СТС + Первый Канал +Дольский + 2хКузнецов)\Короткое Замыкание 2 (СТС + Первый Канал + Дольский).avi
Format : AVI
Format/Info : Audio Video Interleave
Format profile : OpenDML
File size : 2.18 GiB
Duration : 1h 50mn
Overall bit rate : 2 831 Kbps
Movie name : Короткое замыкание 2 / Short Circuit 2 (1988) BDRip
Director : Orbit
Writing application : VirtualDubMod 1.5.10.3 | www.virtualdub-fr.org || (build 2550/release)
Writing library : VirtualDubMod build 2550/release
Copyright : hqclub.net
Comment : 26.04.2011
Video
ID : 0
Format : MPEG-4 Visual
Format profile : Advanced Simple@L5
Format settings, BVOP : 1
Format settings, QPel : No
Format settings, GMC : No warppoints
Format settings, Matrix : Custom
Codec ID : XVID
Codec ID/Hint : XviD
Duration : 1h 50mn
Bit rate : 2 230 Kbps
Width : 704 pixels
Height : 384 pixels
Display aspect ratio : 1.85:1
Frame rate : 23.976 fps
Color space : YUV
Chroma subsampling : 4:2:0
Bit depth : 8 bits
Scan type : Progressive
Compression mode : Lossy
Bits/(Pixel*Frame) : 0.344
Stream size : 1.72 GiB (79%)
Writing library : XviD 63
Audio #1
ID : 1
Format : AC-3
Format/Info : Audio Coding 3
Mode extension : CM (complete main)
Format settings, Endianness : Big
Codec ID : 2000
Duration : 1h 50mn
Bit rate mode : Constant
Bit rate : 192 Kbps
Channel(s) : 2 channels
Channel positions : Front: L R
Sampling rate : 48.0 KHz
Compression mode : Lossy
Stream size : 152 MiB (7%)
Alignment : Split accross interleaves
Interleave, duration : 42 ms (1.00 video frame)
Interleave, preload duratio : 500 ms
Audio #2
ID : 2
Format : AC-3
Format/Info : Audio Coding 3
Mode extension : CM (complete main)
Format settings, Endianness : Big
Codec ID : 2000
Duration : 1h 50mn
Bit rate mode : Constant
Bit rate : 192 Kbps
Channel(s) : 2 channels
Channel positions : Front: L R
Sampling rate : 48.0 KHz
Compression mode : Lossy
Stream size : 152 MiB (7%)
Alignment : Split accross interleaves
Interleave, duration : 42 ms (1.00 video frame)
Interleave, preload duratio : 500 ms
Audio #3
ID : 3
Format : AC-3
Format/Info : Audio Coding 3
Mode extension : CM (complete main)
Format settings, Endianness : Big
Codec ID : 2000
Duration : 1h 50mn
Bit rate mode : Constant
Bit rate : 192 Kbps
Channel(s) : 2 channels
Channel positions : Front: L R
Sampling rate : 48.0 KHz
Compression mode : Lossy
Stream size : 152 MiB (7%)
Alignment : Split accross interleaves
Interleave, duration : 42 ms (1.00 video frame)
Interleave, preload duratio : 500 ms

Скриншот c названием фильма

Скриншоты

To download the content you need:
1. Download and install torrent client [for Windows] or for mobile system
2. Click on [Download]
Attention.
If the test YOU are NOT a ROBOT - does not work, then You are using an outdated browser.
Install the current browser and click on [Download]

Do not work with Yandex browser. Uploading files to them is erroneous.
Security: torrent client is allowed by Kaspersky.

[en.asmlocator.ru].t4243.torrent 
Torrent: Registered [ 2015-11-30 05:45 ] · 8548D316C39D73BE798798DE9E561A03398AEC51

Download .torrent

Download

13 KB

Status: checked
Completed: 1 times
Size: 2.48 GB
terms.php
[Profile] [PM]
Display posts:    
Reply to topic

Current time is: 05-Apr 04:45

All times are UTC ± 0



You cannot post new topics in this forum
You cannot reply to topics in this forum
You cannot edit your posts in this forum
You cannot delete your posts in this forum
You cannot vote in polls in this forum
You cannot attach files in this forum
You can download files in this forum
Верим фактам, а не вранью Путина! Факт, что Правительство ведёт Россию к истреблению.
Так как численность населения падает, даже не смотря на приток эмигрантов!
Русская нация вымирает и вырождается, смешиваясь с эмигрантами!
Факт, что военных и граждан предприятий заставляют голосовать за партию Единая Россия и Путина
ПОД СТРАХОМ УВОЛЬНЕНИЯ!
Нам не нужно Правительство, блокирующее личную жизнь, интернет, нарушающее сохранность данных.
Все эти действия финансируются за счёт народа!