Смертельное оружие 2 / Lethal Weapon 2 (Ричард Доннер / Richard Donner) [1989, США, Боевик, детектив, HDRip] AVO (А.Гаврилов (ранний) + (самый ранний)

Reply to topic
DL-List and Torrent activity
Size:  1.4 GB   |    Registered:  4 years 3 months   |    Completed:  0 times

Seeder not seen: 1 year 1 month

 
   
 
 
Author Message

star21 ®

Gender: Female

Longevity: 4 years 4 months

Posts: 551945

Location: Екатеринбург

Post 30-Nov-2015 05:53

[Quote]

Смертельное оружие 2 / Lethal Weapon 2
Страна: США
Жанр: Боевик, детектив
Год выпуска: 1989
Продолжительность: 01:54:27
Перевод: Авторский (одноголосый закадровый) А.Гаврилов (ранний)
Перевод: Авторский (одноголосый закадровый) А.Гаврилов (самый ранний)
Cубтитры: нет
Оригинальная аудиодорожка: английский
Режиссер: Ричард Доннер / Richard Donner
В ролях: Мел Гибсон /Mel Gibson/, Дэнни Гловер /Danny Glover/, Джо Пеши /Joe Pesci/, Джош Экланд /Joss Ackland/, Трейси Вулф /Traci Wolfe/, Марк Ролстон /Mark Rolston/
Описание: Зрителя вновь ждет встреча с неустанно сражающейся с преступниками парочкой друзей-полицейских (Мел Гибсон и Дэнни Гловер). Спасая собственную жизнь и жизнь главного свидетеля (Джо Пеши), они вынуждены схватиться с шайкой южноафриканских контрабандистов.
Доп. информация: Видеоряд отсюда
Дорожка с ранним переводом А. Гаврилова синхронизирована и наложена ale_x2008 при помощи Sony Vegas и VirtualDubMod.
За оцифрованную с VHS дорожку благодарим благодарим - ermak1990

Дорожка с 3-ей версией перевода А. Гаврилова (самый ранний) синхронизирована и наложена ale_x2008 при помощи Sony Vegas и VirtualDubMod.
За оцифрованную с VHS дорожку благодарим - марат7 и за активное участие - ermak1990

Релиз
Сэмпл: https://yadi.sk/i/8dxqO_KYj6pzx
Качество видео: HDRip
Формат видео: AVI
Видео: 720x304 (2.37:1), 23.976 fps, XviD build 50 ~1357 kbps avg, 0.26 bit/pixel
Аудио: 48 kHz, AC3 Dolby Digital, 2/0 (L,R) ch, ~192 kbps ранний
Аудио 2: 48 kHz, AC3 Dolby Digital, 2/0 (L,R) ch, ~192 kbps самый ранний

MediaInfo

Смертельное оружие 2 - Lethal weapon 2 [2x Gavrilov] [by ale_x2008].avi
Format : AVI
Format/Info : Audio Video Interleave
File size : 1.40 GiB
Duration : 1h 54mn
Overall bit rate : 1 756 Kbps
Movie name : Смертельное оружие 2 - Lethal weapon 2 [Gavrilov ranniy] [by ale_x2008]
Director : by ale_x2008
Writing application : VirtualDubMod 1.5.10.2 (build 2540/release)
Writing library : VirtualDubMod build 2540/release
Copyright : Edich2
Comment : RuTracker.org
Video
ID : 0
Format : MPEG-4 Visual
Format profile : Advanced Simple@L5
Format settings, BVOP : 1
Format settings, QPel : No
Format settings, GMC : No warppoints
Format settings, Matrix : Custom
Codec ID : XVID
Codec ID/Hint : XviD
Duration : 1h 54mn
Bit rate : 1 358 Kbps
Width : 720 pixels
Height : 304 pixels
Display aspect ratio : 2.35:1
Frame rate : 23.976 fps
Color space : YUV
Chroma subsampling : 4:2:0
Bit depth : 8 bits
Scan type : Progressive
Compression mode : Lossy
Bits/(Pixel*Frame) : 0.259
Stream size : 1.09 GiB (77%)
Writing library : XviD 1.2.1 (UTC 2008-12-04)
Audio #1
ID : 1
Format : AC-3
Format/Info : Audio Coding 3
Mode extension : CM (complete main)
Format settings, Endianness : Big
Codec ID : 2000
Duration : 1h 54mn
Bit rate mode : Constant
Bit rate : 192 Kbps
Channel(s) : 2 channels
Channel positions : Front: L R
Sampling rate : 48.0 KHz
Bit depth : 16 bits
Compression mode : Lossy
Stream size : 157 MiB (11%)
Alignment : Split accross interleaves
Interleave, duration : 42 ms (1.00 video frame)
Interleave, preload duration : 500 ms
Audio #2
ID : 2
Format : AC-3
Format/Info : Audio Coding 3
Mode extension : CM (complete main)
Format settings, Endianness : Big
Codec ID : 2000
Duration : 1h 54mn
Bit rate mode : Constant
Bit rate : 192 Kbps
Channel(s) : 2 channels
Channel positions : Front: L R
Sampling rate : 48.0 KHz
Bit depth : 16 bits
Compression mode : Lossy
Stream size : 157 MiB (11%)
Alignment : Split accross interleaves
Interleave, duration : 42 ms (1.00 video frame)
Interleave, preload duration : 500 ms

Скриншоты


15.09.15. Торрент перезалит. ЗАМЕНА-ПЕРЕЗАЛИВ ДОРОЖКИ ГАВРИЛОВА (самый ранний).

To download the content you need:
1. Download and install torrent client [for Windows] or for mobile system
2. Click on [Download]
Attention.
If the test YOU are NOT a ROBOT - does not work, then You are using an outdated browser.
Install the current browser and click on [Download]

Do not work with Yandex browser. Uploading files to them is erroneous.
Security: torrent client is allowed by Kaspersky.

[en.asmlocator.ru].t4242.torrent 
Torrent: Registered [ 2015-11-30 05:45 ] · 7D08B058A824912653437C4AB05A092B21CCF146

Download .torrent

Download

15 KB

Status: checked
Completed: 0 times
Size: 1.4 GB
terms.php
[Profile] [PM]
Display posts:    
Reply to topic

Current time is: 28-Mar 23:12

All times are UTC ± 0



You cannot post new topics in this forum
You cannot reply to topics in this forum
You cannot edit your posts in this forum
You cannot delete your posts in this forum
You cannot vote in polls in this forum
You cannot attach files in this forum
You can download files in this forum
Верим фактам, а не вранью Путина! Факт, что Правительство ведёт Россию к истреблению.
Так как численность населения падает, даже не смотря на приток эмигрантов!
Русская нация вымирает и вырождается, смешиваясь с эмигрантами!
Факт, что военных и граждан предприятий заставляют голосовать за партию Единая Россия и Путина
ПОД СТРАХОМ УВОЛЬНЕНИЯ!
Нам не нужно Правительство, блокирующее личную жизнь, интернет, нарушающее сохранность данных.
Все эти действия финансируются за счёт народа!