Люди-Кошки / Cat People (Пол Шредер / Paul Shrader) [1982, США, триллер, фэнтези, ужасы, драма, BDRip] DVO (НТВ)

Reply to topic
DL-List and Torrent activity
Size:  1.41 GB   |    Registered:  4 years 4 months   |    Completed:  0 times

Seeder not seen: Never

 
   
 
 
Author Message

star21 ®

Gender: Female

Longevity: 4 years 4 months

Posts: 551945

Location: Екатеринбург

Post 30-Nov-2015 05:53

[Quote]

Люди-Кошки / Cat People
Год выпуска: 1982
Страна: США
Жанр: триллер, фэнтези, ужасы, драма
Продолжительность: 01:58:09
Перевод: Профессиональный (двухголосый закадровый) - НТВ
Cубтитры: нет
Режиссер: Пол Шредер / Paul Shrader
В ролях: Настасья Кински (Irena Gallier), Малкольм МакДауэлл (Paul Gallier), Джон Хёрд (Oliver Yates), Аннетт О'Тул (Alice Perrin), Руби Ди (Female), Эд Бегли мл. (Joe Creigh), Скотт Полин (Bill Searle), Фрэнки Фэйзон (Detective Brandt), Рон Дайэмонд (Detective Ron Diamond), Линн Лаури (Ruthie)-Мировая премьера: 2 апреля 1982-Описание: Когда-то, в незапамятные времена, мужчины отдавали девушек из своего племени в жертву леопардам. Так появились на свет люди-кошки. Внешне они ничем не отличаются от обычных людей, но время от времени превращаются в животных и склонны к насилию. Брат и сестра, чьи родители умерли странной смертью, встречаются в Нью-Орлеане после долгой разлуки. Девушка устраивается на работу в зоопарк и узнает, что в городе появился леопард-убийца.-Исходник видео: Cat.People.1982.1080p.BluRay.x264-CONTRiBUTiON [PublicHD]-Благодарности:
- собственная запись перевода с телеканала НТВ в конце 90-х годов через видеомагнитофон и оцифровка с видеокассеты.
- синхронизация перевода.-Данный перевод на трекере появляется впервые.
На русский язык фильм озвучен телекомпанией НТВ.
Текст читают Владимир Вихров и Анна Каменкова.-Рейтинг

MPAA: R - Лицам до 17 лет обязательно присутствие взрослого.-Качество видео: BDRip
Формат видео: AVI -> //Сэмпл//
Видео: XviD, 720x400 (16:9), 23.976 fps, 1512 kbps avg
Аудио:
1 - 48 khz, AC3 Dolby Digital, 2/0 (L,R) ch, ~192 kbps [НТВ] VHSRip

MediaInfo

General
Complete name : E:\Торрент Файлы\Будущие Релизы на Трекере\1.35 - 1.46 и более гб\Люди-Кошки (НТВ).avi
Format : AVI
Format/Info : Audio Video Interleave
File size : 1.41 GiB
Duration : 1h 58mn
Overall bit rate : 1 713 Kbps
Writing application : VirtualDubMod 1.5.10.3 | www.virtualdub-fr.org || (build 2550/release)
Writing library : VirtualDubMod build 2550/release
Video
ID : 0
Format : MPEG-4 Visual
Format profile : Advanced Simple@L5
Format settings, BVOP : 1
Format settings, QPel : No
Format settings, GMC : No warppoints
Format settings, Matrix : Custom
Codec ID : XVID
Codec ID/Hint : XviD
Duration : 1h 58mn
Bit rate : 1 512 Kbps
Width : 720 pixels
Height : 400 pixels
Display aspect ratio : 16:9
Frame rate : 23.976 fps
Color space : YUV
Chroma subsampling : 4:2:0
Bit depth : 8 bits
Scan type : Progressive
Compression mode : Lossy
Bits/(Pixel*Frame) : 0.219
Stream size : 1.25 GiB (88%)
Writing library : XviD 1.2.1 (UTC 2008-12-04)
Audio
ID : 1
Format : AC-3
Format/Info : Audio Coding 3
Mode extension : CM (complete main)
Format settings, Endianness : Big
Codec ID : 2000
Duration : 1h 58mn
Bit rate mode : Constant
Bit rate : 192 Kbps
Channel(s) : 2 channels
Channel positions : Front: L R
Sampling rate : 48.0 KHz
Compression mode : Lossy
Stream size : 162 MiB (11%)
Alignment : Split accross interleaves
Interleave, duration : 42 ms (1.00 video frame)
Interleave, preload duratio : 500 ms

Скриншот c названием фильма

Скриншоты

To download the content you need:
1. Download and install torrent client [for Windows] or for mobile system
2. Click on [Download]
Attention.
If the test YOU are NOT a ROBOT - does not work, then You are using an outdated browser.
Install the current browser and click on [Download]

Do not work with Yandex browser. Uploading files to them is erroneous.
Security: torrent client is allowed by Kaspersky.

[en.asmlocator.ru].t4240.torrent 
Torrent: Registered [ 2015-11-30 05:45 ] · 144149ED61B46B3883300077EF2150A73523B597

Download .torrent

Download

15 KB

Status: checked
Completed: 0 times
Size: 1.41 GB
terms.php
[Profile] [PM]
Display posts:    
Reply to topic

Current time is: 31-Mar 16:35

All times are UTC ± 0



You cannot post new topics in this forum
You cannot reply to topics in this forum
You cannot edit your posts in this forum
You cannot delete your posts in this forum
You cannot vote in polls in this forum
You cannot attach files in this forum
You can download files in this forum
Верим фактам, а не вранью Путина! Факт, что Правительство ведёт Россию к истреблению.
Так как численность населения падает, даже не смотря на приток эмигрантов!
Русская нация вымирает и вырождается, смешиваясь с эмигрантами!
Факт, что военных и граждан предприятий заставляют голосовать за партию Единая Россия и Путина
ПОД СТРАХОМ УВОЛЬНЕНИЯ!
Нам не нужно Правительство, блокирующее личную жизнь, интернет, нарушающее сохранность данных.
Все эти действия финансируются за счёт народа!