Горячая жевательная резинка 3 / Кипящая Жвачка / Shifshuf Naim / Lemon Popsicle 3 / Hot Bubblegum (Боаз Дэвидсон / Boaz Davidson) [1981, Израиль, Германия (ФРГ), комедия, VHSRip] AVO (В. Горчаков)

Reply to topic
DL-List and Torrent activity
Size:  1.37 GB   |    Registered:  4 years 4 months   |    Completed:  0 times

Seeder not seen: Never

 
   
 
 
Author Message

star21 ®

Gender: Female

Longevity: 4 years 4 months

Posts: 551945

Location: Екатеринбург

Post 30-Nov-2015 05:53

[Quote]

Горячая жевательная резинка 3 / Кипящая Жвачка / Shifshuf Naim / Lemon Popsicle 3 / Hot Bubblegum
Страна: Израиль, Германия (ФРГ)
Жанр: комедия
Год выпуска: 1981
Продолжительность: 01:29:39
Перевод: Авторский (одноголосый закадровый) В. Горчаков
Cубтитры: нет
Режиссер: Боаз Дэвидсон / Boaz Davidson
В ролях: Ифтах Кацур, Йонатан Сэгаль, Цахи Ной, Ариелла Рабинович, Орна Дегэн, Рэйчел Стейнер, Менаш Варшавски, Двора Кедар, Ави Хадаш, Зибилле Раух
Описание: Аннотация от alenavova
Подглядывания за девушками в раздевалках, танцы-"прижиманцы", разговоры про секс и поиски "опытных" женщин - на что еще взрослеющим мальчикам тратить свое время?! Из цепи комических эпизодов и состоит картина израильского режиссера Боаза Дэвидсона, благодаря которой на него обратили внимание в Голливуде и пригласили туда работать - то есть продолжать вспахивать необъятную кинематог рафическую ниву под названием "эротические похождения подростков". Но "Горячая жевательная резинка" - не только комедия. Снятая в 1981 году, эта лента рассказывает о ребятах из ушедшей в прошлое эпохи 50-х годов, а потому все время звучат за кадром песни и мелодии популярных Билла Хэйли и Фрэнки Авалона, Литтл Ричарда и Чака Берри, Ритчи Валенса и Дуэйна Эдди. Пожалуй, этот ностальгический колорит - неоспоримое достоинство фильма, в котором есть и другие плюсы (менее заметные)...
Доп. информация: Оцифровка VHS (личный архив) и получение VHSRip alenavova
Эксклюзив для rutracker.org. При размещении данного релиза на других сайтах ссылка на автора alenavova обязательна.

Релиз
Сэмпл: https://yadi.sk/i/8kfWr_Joj9mqP
Качество видео: VHSRip
Формат видео: AVI
Видео: 704x528 (1.33:1), 25 fps, XviD build 50 ~1979 kbps avg, 0.21 bit/pixel
Аудио: 48 kHz, AC3 Dolby Digital, 2/0 (L,R) ch, ~192 kbps

MediaInfo

Горячая жевательная резинка - Lemon Popsicle 3 (by alenavova).avi
Format : AVI
Format/Info : Audio Video Interleave
File size : 1.37 GiB
Duration : 1h 29mn
Overall bit rate : 2 182 Kbps
Movie name : Горячая жевательная резинка - Lemon Popsicle 3 (by alenavova)
Director : by alenavova
Writing application : VirtualDubMod 1.5.10.3 | www.virtualdub-fr.org || (build 2550/release)
Copyright : Edich2
Comment : RuTracker.org
Video
ID : 0
Format : MPEG-4 Visual
Format profile : Advanced Simple@L5
Format settings, BVOP : 1
Format settings, QPel : No
Format settings, GMC : No warppoints
Format settings, Matrix : Default (MPEG)
Codec ID : XVID
Codec ID/Hint : XviD
Duration : 1h 29mn
Bit rate : 1 980 Kbps
Width : 704 pixels
Height : 528 pixels
Display aspect ratio : 4:3
Frame rate : 25.000 fps
Color space : YUV
Chroma subsampling : 4:2:0
Bit depth : 8 bits
Scan type : Progressive
Compression mode : Lossy
Bits/(Pixel*Frame) : 0.213
Stream size : 1.24 GiB (91%)
Writing library : XviD 1.2.1 (UTC 2008-12-04)
Audio
ID : 1
Format : AC-3
Format/Info : Audio Coding 3
Mode extension : CM (complete main)
Format settings, Endianness : Big
Codec ID : 2000
Duration : 1h 29mn
Bit rate mode : Constant
Bit rate : 192 Kbps
Channel(s) : 2 channels
Channel positions : Front: L R
Sampling rate : 48.0 KHz
Bit depth : 16 bits
Compression mode : Lossy
Stream size : 123 MiB (9%)
Alignment : Split accross interleaves
Interleave, duration : 40 ms (1.00 video frame)
Interleave, preload duration : 500 ms

Скриншоты


To download the content you need:
1. Download and install torrent client [for Windows] or for mobile system
2. Click on [Download]
Attention.
If the test YOU are NOT a ROBOT - does not work, then You are using an outdated browser.
Install the current browser and click on [Download]

Do not work with Yandex browser. Uploading files to them is erroneous.
Security: torrent client is allowed by Kaspersky.

[en.asmlocator.ru].t4237.torrent 
Torrent: Registered [ 2015-11-30 05:45 ] · 133FAE14D22F54CA289E567E40524A1FC82052EF

Download .torrent

Download

14 KB

Status: checked
Completed: 0 times
Size: 1.37 GB
terms.php
[Profile] [PM]
Display posts:    
Reply to topic

Current time is: 03-Apr 09:40

All times are UTC ± 0



You cannot post new topics in this forum
You cannot reply to topics in this forum
You cannot edit your posts in this forum
You cannot delete your posts in this forum
You cannot vote in polls in this forum
You cannot attach files in this forum
You can download files in this forum
Верим фактам, а не вранью Путина! Факт, что Правительство ведёт Россию к истреблению.
Так как численность населения падает, даже не смотря на приток эмигрантов!
Русская нация вымирает и вырождается, смешиваясь с эмигрантами!
Факт, что военных и граждан предприятий заставляют голосовать за партию Единая Россия и Путина
ПОД СТРАХОМ УВОЛЬНЕНИЯ!
Нам не нужно Правительство, блокирующее личную жизнь, интернет, нарушающее сохранность данных.
Все эти действия финансируются за счёт народа!