День рождения Элисон / Alison\'s Birthday (Йен Кохлан / Ian Coughlan) [1981, Австралия, триллер, ужасы, VHSRip] VO (Хэм)

Reply to topic
DL-List and Torrent activity
Size:  715 MB   |    Registered:  4 years 4 months   |    Completed:  0 times

Seeder not seen: Never

 
   
 
 
Author Message

star21 ®

Gender: Female

Longevity: 4 years 4 months

Posts: 551945

Location: Екатеринбург

Post 30-Nov-2015 05:53

[Quote]

День рождения Элисон / Alison's Birthday
Страна: Австралия
Жанр: триллер, ужасы
Год выпуска: 1981
Продолжительность: 1:34:28
Перевод: Одноголосый закадровый Хэм
Cубтитры: нет
Режиссер: Йен Кохлан / Ian Coughlan
В ролях: Джоанна Самуэль, Лу Браун, Банни Брук, Джон Блютал
Описание: Элисон готовится справить своё девятнадцатилетие, приехав погостить к родственникам. В то же время у секты пост-кельтских оккультистов на этот знаменательный день, и на саму Элисон имеются более радикальные планы.
Доп. информация: [imdb]http://www.imdb.com/title/tt0078751[/imdb]
Качество видео: VHSRip
Формат видео: AVI
Видео: XVID, 464x352, 4:3, 25,0 fps, 921 Kbps
Аудио: MP3, 48 kHz, 128 Kbps, 2.0

MediaInfo

General
Complete name : E:\1980\День рождения Элисон (1981).avi
Format : AVI
Format/Info : Audio Video Interleave
File size : 715 MiB
Duration : 1h 34mn
Overall bit rate : 1 058 Kbps
Writing application : VirtualDubMod 1.5.4.1 (build 2178/release)
Writing library : VirtualDub build 32817/release
Video
ID : 0
Format : MPEG-4 Visual
Format profile : Advanced Simple@L5
Format settings, BVOP : 1
Format settings, QPel : No
Format settings, GMC : No warppoints
Format settings, Matrix : Custom
Codec ID : XVID
Codec ID/Hint : XviD
Duration : 1h 34mn
Bit rate : 921 Kbps
Width : 464 pixels
Height : 352 pixels
Display aspect ratio : 4:3
Frame rate : 25.000 fps
Color space : YUV
Chroma subsampling : 4:2:0
Bit depth : 8 bits
Scan type : Progressive
Compression mode : Lossy
Bits/(Pixel*Frame) : 0.225
Stream size : 622 MiB (87%)
Writing library : XviD 1.2.0.dev47 (UTC 2006-11-01)
Audio
ID : 1
Format : MPEG Audio
Format version : Version 1
Format profile : Layer 3
Mode : Joint stereo
Mode extension : MS Stereo
Codec ID : 55
Codec ID/Hint : MP3
Duration : 1h 34mn
Bit rate mode : Constant
Bit rate : 128 Kbps
Channel(s) : 2 channels
Sampling rate : 48.0 KHz
Compression mode : Lossy
Stream size : 86.5 MiB (12%)
Alignment : Split accross interleaves
Interleave, duration : 40 ms (1.00 video frame)
Interleave, preload duration : 500 ms

Скриншоты

To download the content you need:
1. Download and install torrent client [for Windows] or for mobile system
2. Click on [Download]
Attention.
If the test YOU are NOT a ROBOT - does not work, then You are using an outdated browser.
Install the current browser and click on [Download]

Do not work with Yandex browser. Uploading files to them is erroneous.
Security: torrent client is allowed by Kaspersky.

[en.asmlocator.ru].t4236.torrent 
Torrent: Registered [ 2015-11-30 05:45 ] · 89E54060A285C5A00B29B16F1B1E98B5BF6C64D4

Download .torrent

Download

15 KB

Status: checked
Completed: 0 times
Size: 715 MB
terms.php
[Profile] [PM]
Display posts:    
Reply to topic

Current time is: 31-Mar 19:00

All times are UTC ± 0



You cannot post new topics in this forum
You cannot reply to topics in this forum
You cannot edit your posts in this forum
You cannot delete your posts in this forum
You cannot vote in polls in this forum
You cannot attach files in this forum
You can download files in this forum
Верим фактам, а не вранью Путина! Факт, что Правительство ведёт Россию к истреблению.
Так как численность населения падает, даже не смотря на приток эмигрантов!
Русская нация вымирает и вырождается, смешиваясь с эмигрантами!
Факт, что военных и граждан предприятий заставляют голосовать за партию Единая Россия и Путина
ПОД СТРАХОМ УВОЛЬНЕНИЯ!
Нам не нужно Правительство, блокирующее личную жизнь, интернет, нарушающее сохранность данных.
Все эти действия финансируются за счёт народа!