Ближайшие родственники / Узы родства / Immediate Family / Immediate Family (Джонатан Каплан / Jonathan Kaplan) [1989, США, Канада, драма, VHSRip] AVO (Андрей Гаврилов)

Reply to topic
DL-List and Torrent activity
Size:  1.37 GB   |    Registered:  4 years 4 months   |    Completed:  0 times

Seeder not seen: Never

 
   
 
 
Author Message

star21 ®

Gender: Female

Longevity: 4 years 5 months

Posts: 551945

Location: Екатеринбург

Post 30-Nov-2015 05:53

[Quote]

Ближайшие родственники / Узы родства / Immediate Family / Immediate Family
Страна: США, Канада
Жанр: драма
Год выпуска: 1989
Продолжительность: 01:40:04
Перевод: Авторский (одноголосый закадровый) Андрей Гаврилов
Cубтитры: нет
Режиссер: Джонатан Каплан / Jonathan Kaplan
В ролях: Гленн Клоуз, Джеймс Вудс, Мэри Стюарт Мастерсон, Кевин Диллон, Линда Дарлоу, Мими Кеннеди, Чарльз Левин, Альма Бельтран, Джессика Джеймс, Кен Лернер...
Описание: Аннотация от alenavova
Линда и Майкл женаты уже почти одинналцать лет. Их счастливую семейную жизнь омрачает одно обстоятельство: как они ни стараются, детей так и нет. Линду задевают любые разговоры других женщин о детях. А Майкл с завистью смотрит вслед любому папаше с ребенком. Тогда они решают взять ребенка у матери, которая добровольно согласится его отдать. В центре, практикующем подобные сделки, их сводят с молоденькой беременной Люси...
Режиссер Джонатан Кэплэн и продюсер Лоуренс Кэздан (оба много лет разрабатывающие тему "человеческой комедии") создали очень теплую, сентиментальную, гуманистическую ленту, в которой нет места низменным страстям, и где даже Джеймс Вудс, переигравший множество жестких, сильных персонажей, становится мягким и добрым. Как и остальные актеры. Вот бы и в жизни так!..
Доп. информация: Оцифровка VHS (личный архив) и получение VHSRip alenavova
Эксклюзив для rutracker.org. При размещении данного релиза на других сайтах ссылка на автора alenavova обязательна.

Релиз
Сэмпл: https://yadi.sk/i/EeU_3WUDjAPg9
Качество видео: VHSRip
Формат видео: AVI
Видео: 704x528 (1.33:1), 25 fps, XviD build 50 ~1755 kbps avg, 0.19 bit/pixel
Аудио: 48 kHz, AC3 Dolby Digital, 2/0 (L,R) ch, ~192 kbps

MediaInfo

Ближайшие родственники - Immediate Family (by alenavova).avi
Format : AVI
Format/Info : Audio Video Interleave
File size : 1.37 GiB
Duration : 1h 40mn
Overall bit rate : 1 957 Kbps
Movie name : Ближайшие родственники - Immediate Family (by alenavova)
Director : by alenavova
Writing application : VirtualDubMod 1.5.10.3 | www.virtualdub-fr.org || (build 2550/release)
Copyright : Rutracker.org
Video
ID : 0
Format : MPEG-4 Visual
Format profile : Advanced Simple@L5
Format settings, BVOP : 1
Format settings, QPel : No
Format settings, GMC : No warppoints
Format settings, Matrix : Default (MPEG)
Codec ID : XVID
Codec ID/Hint : XviD
Duration : 1h 40mn
Bit rate : 1 756 Kbps
Width : 704 pixels
Height : 528 pixels
Display aspect ratio : 4:3
Frame rate : 25.000 fps
Color space : YUV
Chroma subsampling : 4:2:0
Bit depth : 8 bits
Scan type : Progressive
Compression mode : Lossy
Bits/(Pixel*Frame) : 0.189
Stream size : 1.23 GiB (90%)
Writing library : XviD 1.2.1 (UTC 2008-12-04)
Audio
ID : 1
Format : AC-3
Format/Info : Audio Coding 3
Mode extension : CM (complete main)
Format settings, Endianness : Big
Codec ID : 2000
Duration : 1h 40mn
Bit rate mode : Constant
Bit rate : 192 Kbps
Channel(s) : 2 channels
Channel positions : Front: L R
Sampling rate : 48.0 KHz
Bit depth : 16 bits
Compression mode : Lossy
Stream size : 137 MiB (10%)
Alignment : Split accross interleaves
Interleave, duration : 40 ms (1.00 video frame)
Interleave, preload duration : 500 ms

Скриншоты


To download the content you need:
1. Download and install torrent client [for Windows] or for mobile system
2. Click on [Download]
Attention.
If the test YOU are NOT a ROBOT - does not work, then You are using an outdated browser.
Install the current browser and click on [Download]

Do not work with Yandex browser. Uploading files to them is erroneous.
Security: torrent client is allowed by Kaspersky.

[en.asmlocator.ru].t4233.torrent 
Torrent: Registered [ 2015-11-30 05:45 ] · 87534E76D1A9F7C6BE922BA503D026476CAB4176

Download .torrent

Download

14 KB

Status: checked
Completed: 0 times
Size: 1.37 GB
terms.php
[Profile] [PM]
Display posts:    
Reply to topic

Current time is: 08-Apr 03:16

All times are UTC ± 0



You cannot post new topics in this forum
You cannot reply to topics in this forum
You cannot edit your posts in this forum
You cannot delete your posts in this forum
You cannot vote in polls in this forum
You cannot attach files in this forum
You can download files in this forum
Верим фактам, а не вранью Путина! Факт, что Правительство ведёт Россию к истреблению.
Так как численность населения падает, даже не смотря на приток эмигрантов!
Русская нация вымирает и вырождается, смешиваясь с эмигрантами!
Факт, что военных и граждан предприятий заставляют голосовать за партию Единая Россия и Путина
ПОД СТРАХОМ УВОЛЬНЕНИЯ!
Нам не нужно Правительство, блокирующее личную жизнь, интернет, нарушающее сохранность данных.
Все эти действия финансируются за счёт народа!