Спящий лагерь / Sleepaway Camp (Роберт Хилтзик / Robert Hiltzik) [1983, США, ужасы, триллер, BDRip] MVO (R5) + AVO (Визгунов) + Original Eng

Reply to topic
DL-List and Torrent activity
Size:  1.56 GB   |    Registered:  4 years 4 months   |    Completed:  0 times

Seeder not seen: 1 year 11 months

 
   
 
 
Author Message

star21 ®

Gender: Female

Longevity: 4 years 4 months

Posts: 551945

Location: Екатеринбург

Post 30-Nov-2015 05:53

[Quote]

Спящий лагерь / Sleepaway Camp- Год выпуска: 1983
Страна: США
Жанр: ужасы, триллер
Продолжительность: 01:24:51
Перевод: Профессиональный (многоголосый, закадровый) R5
+ Оригинальная звуковая дорожка
+ Авторский одноголосый С.Визгунов (отдельно)
Субтитры: нет-Режиссер: Роберт Хилтзик / Robert Hiltzik
В ролях: Фелисса Роуз, Джонатан Тирстен, Карен Филдс, Кристофер Коллет, Майк Келлин, Кэтрин Кэми, Пол ДеАнджело, Томас Е. ван Делл, Лорис Саллахиан, Джон Э. Данн
О фильме: На озере тонет яхта с мужчиной и двумя его детьми на борту. Катающиеся рядом на катерах подростки не обратили внимание на разыгравшуюся трагедию. В результате их неосторожной езды мужчина и его сын погибают.
Оставшаяся в живых девочка Анжела отправляется жить вместе со своей тётей Мартой и двоюродным братом Рикки. Только теперь девочка постоянно молчит, перенеся сильный травматический шок. Восемь лет спустя Анжела и Рикки отправляются в летний лагерь, на озеро, где погибли ее отец и брат. Необщительная Анжела становится предметом нападок и шуток со стороны подростков. Анжела не устраивает своим поведением даже взрослых. И вскоре люди, которые причиняли ей боль, начинают погибать от рук таинственного убийцы…
Релиз:
Автор: sociolog_melvas
Качество: BDRip (источник: / BD-Remux / 1080p)
Формат: AVI
Видео: 704x400 (1.76:1), 23,976 fps, XviD build 65 ~2050 kbps avg, 0.30 bit/pixel
Аудио #1: 48 kHz, AC3 Dolby Digital, 2/0 (L,R), ~192.00 kbps avg MVO
Аудио #2: 48 kHz, AC3 Dolby Digital, 2/0 (L,R), ~192.00 kbps avg ENG
Аудио #3: 48 kHz, AC3 Dolby Digital, 2/0 (L,R), ~192.00 kbps avg AVO (отдельно)
Размер: 1485.99 Mb (1/3 DVD-R)
Скачать: Семпл-

Кадры из фильма


-

Mi

Формат : AVI
Формат/Информация : Audio Video Interleave
Размер файла : 1,45 Гбайт
Продолжительность : 1 ч. 24 м.
Общий поток : 2449 Кбит/сек
Название фильма : Спящий лагерь / Sleepaway Camp (1983) BDRip
Режиссёр : sociolog_melvas
Жанр : ужасы, триллер
Программа кодирования : VirtualDubMod 1.5.10.2 (build 2540/release)
Правообладатель : HQCLUB
Примечание : 30.08.2015
Видео
Идентификатор : 0
Формат : MPEG-4 Visual
Профиль формата : Advanced Simple@L5
Параметр BVOP формата : 1
Параметр QPel формата : Нет
Параметр GMC формата : Без точки перехода
Параметр матрицы формата : Выборочная
Идентификатор кодека : XVID
Идентификатор кодека/Подсказка : XviD
Продолжительность : 1 ч. 24 м.
Битрейт : 2051 Кбит/сек
Ширина : 704 пикселя
Высота : 400 пикселей
Соотношение сторон : 16:9
Частота кадров : 23,976 кадра/сек
Цветовое пространство : YUV
Субдискретизация насыщенности : 4:2:0
Битовая глубина : 8 бит
Тип развёртки : Прогрессивная
Метод сжатия : С потерями
Бит/(Пиксели*Кадры) : 0.304
Размер потока : 1,22 Гбайт (84%)
Библиотека кодирования : XviD 65
Аудио #1
Идентификатор : 1
Формат : AC-3
Формат/Информация : Audio Coding 3
Расширение режима : CM (complete main)
Параметр Endianness формата : Big
Идентификатор кодека : 2000
Продолжительность : 1 ч. 24 м.
Вид битрейта : Постоянный
Битрейт : 192 Кбит/сек
Каналы : 2 канала
Расположение каналов : Front: L R
Частота : 48,0 КГц
Битовая глубина : 16 бит
Метод сжатия : С потерями
Размер потока : 117 Мбайт (8%)
Выравнивание : Разделение по промежуткам
Продолжительность промежутка : 42 мс. (1,00 видеокадр)
Время предзагрузки промежутка : 500 мс.
Аудио #2
Идентификатор : 2
Формат : AC-3
Формат/Информация : Audio Coding 3
Расширение режима : CM (complete main)
Параметр Endianness формата : Big
Идентификатор кодека : 2000
Продолжительность : 1 ч. 24 м.
Вид битрейта : Постоянный
Битрейт : 192 Кбит/сек
Каналы : 2 канала
Расположение каналов : Front: L R
Частота : 48,0 КГц
Битовая глубина : 16 бит
Метод сжатия : С потерями
Размер потока : 117 Мбайт (8%)
Выравнивание : Разделение по промежуткам
Продолжительность промежутка : 42 мс. (1,00 видеокадр)
Время предзагрузки промежутка : 500 мс.
-

To download the content you need:
1. Download and install torrent client [for Windows] or for mobile system
2. Click on [Download]
Attention.
If the test YOU are NOT a ROBOT - does not work, then You are using an outdated browser.
Install the current browser and click on [Download]

Do not work with Yandex browser. Uploading files to them is erroneous.
Security: torrent client is allowed by Kaspersky.

[en.asmlocator.ru].t4232.torrent 
Torrent: Registered [ 2015-11-30 05:45 ] · 5DEBB6B27449443AEB4C6E1EE6F7FB3E7E333FC3

Download .torrent

Download

16 KB

Status: checked
Completed: 0 times
Size: 1.56 GB
terms.php
[Profile] [PM]
Display posts:    
Reply to topic

Current time is: 03-Apr 03:33

All times are UTC ± 0



You cannot post new topics in this forum
You cannot reply to topics in this forum
You cannot edit your posts in this forum
You cannot delete your posts in this forum
You cannot vote in polls in this forum
You cannot attach files in this forum
You can download files in this forum
Верим фактам, а не вранью Путина! Факт, что Правительство ведёт Россию к истреблению.
Так как численность населения падает, даже не смотря на приток эмигрантов!
Русская нация вымирает и вырождается, смешиваясь с эмигрантами!
Факт, что военных и граждан предприятий заставляют голосовать за партию Единая Россия и Путина
ПОД СТРАХОМ УВОЛЬНЕНИЯ!
Нам не нужно Правительство, блокирующее личную жизнь, интернет, нарушающее сохранность данных.
Все эти действия финансируются за счёт народа!