Извините, Вы нормальны? / Scusi, lei e normale? (Умберто Ленци / Umberto Lenzi) [1979, Италия, комедия, DVDRip] Sub Rus + Original Ita

Reply to topic
DL-List and Torrent activity
Size:  1.36 GB   |    Registered:  4 years 6 months   |    Completed:  0 times

Seeder not seen: 3 years 8 months

Leechers:

Username % UL DL UL speed DL speed
Guest 0 0- 0- 0- 0-
shows data only for the current session
 
   
 
 
Author Message

star21 ®

Gender: Female

Longevity: 4 years 6 months

Posts: 551945

Location: Екатеринбург

Post 30-Nov-2015 05:53

[Quote]

Извините, Вы нормальны? / Scusi, lei e normale? Страна: Италия
Жанр: комедия
Год выпуска: 1979
Продолжительность: 01:27:23
Перевод: Субтитры Антон Каптелов
Cубтитры: русские
Оригинальная аудиодорожка: итальянский
Режиссер: Умберто Ленци / Umberto Lenzi
В ролях: Анна Мария Риццоли, Ренцо Монтаньяни, Альдо Маччоне, Рэй Лавлок, Сальваторе Джаконо, Сузанна Скеммари, Энцо Андронико, Лука Спортелли, Марселло Мартана
Описание: Являясь ярым поборником общественной морали и добродетели, судья Густаво Спарвьери давно и безуспешно пытается выйти на студию, где снимаются фото для эротических комиксов, главной моделью которых является красавица под псевдонимом Нини-Помпон. Наш герой даже не подозревает, что девушку, которую он разыскивает, на самом деле зовут Анна Мария Иммаколата (Непорочная) и она является дочерью президента Общественной Ассоциации Христианской Морали.
Сэмпл: http://multi-up.com/1067537
Качество видео: DVDRip
Формат видео: AVI
Видео: 656x384 (1.71:1), 25 fps, XviD build 47 ~2029 kbps avg, 0.32 bit/pixel
Аудио: 48 kHz, AC3 Dolby Digital, 2/0 (L,R) ch, ~192 kbps
Формат субтитров: softsub (SRT)

MediaInfo

Format : MPEG-4 Visual
Format profile : Advanced Simple@L5
Format settings, BVOP : 1
Format settings, QPel : No
Format settings, GMC : No warppoints
Format settings, Matrix : Default (MPEG)
Codec ID : XVID
Codec ID/Hint : XviD
Duration : 1h 27mn
Bit rate : 2 030 Kbps
Width : 656 pixels
Height : 384 pixels
Display aspect ratio : 1.708
Frame rate : 25.000 fps
Color space : YUV
Chroma subsampling : 4:2:0
Bit depth : 8 bits
Scan type : Progressive
Compression mode : Lossy
Bits/(Pixel*Frame) : 0.322
Stream size : 1.24 GiB (91%)
Writing library : XviD 1.2.0.dev47 (UTC 2006-11-01)
Audio
ID : 1
Format : AC-3
Format/Info : Audio Coding 3
Mode extension : CM (complete main)
Format settings, Endianness : Big
Codec ID : 2000
Duration : 1h 27mn
Bit rate mode : Constant
Bit rate : 192 Kbps
Channel(s) : 2 channels
Channel positions : Front: L R
Sampling rate : 48.0 KHz
Bit depth : 16 bits
Compression mode : Lossy
Stream size : 120 MiB (9%)
Alignment : Split accross interleaves
Interleave, duration : 40 ms (1.00 video frame)
Interleave, preload duration : 500 ms

Скриншот c названием фильма

Пример субтитров

29
00:03:22,751 --> 00:03:26,007
Сейчас шесть часов утра...
а, может, и вечера.
30
00:03:26,346 --> 00:03:29,192
Эти ребята действительно невероятны!
31
00:03:29,503 --> 00:03:31,403
Они танцуют уже 26 часов!
32
00:04:02,960 --> 00:04:05,688
Карла! Карла, открой глаза!
Ну же!
33
00:04:06,281 --> 00:04:09,284
Слушай, если ты уснешь,
мы проиграем гонку, а тогда я
тебя убью!
34
00:04:09,373 --> 00:04:10,842
Давай!
35
00:04:12,680 --> 00:04:15,278
Карла! Соберись же! Давай!
36
00:04:15,657 --> 00:04:17,941
Сучка, вставай же ты! Давай!
37
00:04:18,810 --> 00:04:20,546
Обломщица!
38
00:04:23,320 --> 00:04:25,918
Франко... Ну, же, Франко,
не принимай это так всерьез!
39
00:04:26,080 --> 00:04:29,360
- С каких пор ты стала такой неженкой?
- Это ты так меня качал, что я будто опьянела!
40
00:04:29,668 --> 00:04:31,850
А как же гонка? Теперь я ее проиграл!
41
00:04:31,990 --> 00:04:35,186
В последний раз я беру себе в пару
такую паралитичку, как ты! Понятно?!
42
00:04:39,143 --> 00:04:41,542
Да! Ура!
43
00:04:41,911 --> 00:04:43,302
Ура!
44
00:04:44,336 --> 00:04:46,029
Спасибо!
45
00:04:47,107 --> 00:04:48,641
Спасибо!
46
00:04:50,360 --> 00:04:52,939
Ну, вот! Вот кто знает,
как надо двигать ногами!
47
00:04:53,051 --> 00:04:54,718
С ней я бы выигрывал на каждом марафоне!
48
00:04:55,985 --> 00:04:57,564
Не надо такого дерьма, Николь!
49
00:04:57,647 --> 00:05:00,772
Это же конец света!
В ней есть все: и ловкость, и класс,
и фантазия!
Огромное спасибо Антону Каптелову за перевод фильма!

To download the content you need:
1. Download and install torrent client [for Windows] or for mobile system
2. Click on [Download]
Attention.
If the test YOU are NOT a ROBOT - does not work, then You are using an outdated browser.
Install the current browser and click on [Download]

Do not work with Yandex browser. Uploading files to them is erroneous.
Security: torrent client is allowed by Kaspersky.

[en.asmlocator.ru].t4220.torrent 
Torrent: Registered [ 2015-11-30 05:45 ] · CF8981FBF993AD8F1FECFC0E708CAF7AB635414F

Download .torrent

Download

14 KB

Status: checked
Completed: 0 times
Size: 1.36 GB
terms.php
[Profile] [PM]
Display posts:    
Reply to topic

Current time is: 03-Jun 03:09

All times are UTC ± 0



You cannot post new topics in this forum
You cannot reply to topics in this forum
You cannot edit your posts in this forum
You cannot delete your posts in this forum
You cannot vote in polls in this forum
You cannot attach files in this forum
You can download files in this forum
Верим фактам, а не вранью Путина! Факт, что Правительство ведёт Россию к истреблению.
Так как численность населения падает, даже не смотря на приток эмигрантов!
Русская нация вымирает и вырождается, смешиваясь с эмигрантами!
Факт, что военных и граждан предприятий заставляют голосовать за партию Единая Россия и Путина
ПОД СТРАХОМ УВОЛЬНЕНИЯ!
Нам не нужно Правительство, блокирующее личную жизнь, интернет, нарушающее сохранность данных.
Все эти действия финансируются за счёт народа!