Прокол / Blow Out (Брайан Де Пальма / Brian De Palma) [1981, США, триллер, детектив, BDRip] DVO (Екатеринбург Арт)

Reply to topic
DL-List and Torrent activity
Size:  1.46 GB   |    Registered:  4 years 4 months   |    Completed:  0 times

Seeder not seen: Never

 
   
 
 
Author Message

star21 ®

Gender: Female

Longevity: 4 years 4 months

Posts: 551945

Location: Екатеринбург

Post 30-Nov-2015 05:53

[Quote]

Прокол / Blow Out
Страна: США
Жанр: триллер, детектив
Год выпуска: 1981
Продолжительность: 01:48:03
Перевод: Профессиональный (двухголосый закадровый) Екатеринбург Арт
Cубтитры: нет
Оригинальная аудиодорожка: нет
Режиссер: Брайан Де Пальма / Brian De Palma
В ролях: Джон Траволта, Нэнси Аллен, Джон Литгоу, Деннис Франц, Питер Бойден, Курт Мэй
Описание: Когда звукооператор записывал ночные звуки, он стал свидетелем автокатастрофы (автомобиль упал в реку с моста) и спас тонувшую проститутку. Прослушивая запись, он понял, что проколу шины предшествовал выстрел. В машине погиб крупный политик. Смертельно опасное расследование этого дела привело его и спасённую им девушку на самые верхние эшелоны власти. (Иванов М.)
Доп. информация:
Видеоряд взят из этой раздачи , за которую благодарим $in0bi.
За звуковую дорожку с переводом студии "Ракурс" по заказу компании "Екатеринбург Арт" большое спасибо Анна57.
За синхронизацию звуковой дороги огромная благодарность JUSTKANT.
Мужские роли озвучивал Александр Рахленко.
Сэмпл: https://www.sendspace.com/file/d631p0
Качество видео: BDRip
Формат видео: AVI
Видео: 720x304, 23.976 fps, MPEG-4 Visual, 1730 Kbps, XviD 65
Аудио: 48 KHz, AC3, 2 ch, 192 Kbps

MediaInfo

General
Complete name : C:\Users\Прокол (ЕА).avi
Format : AVI
Format/Info : Audio Video Interleave
File size : 1.46 GiB
Duration : 1h 48mn
Overall bit rate : 1 931 Kbps
Movie name : Прокол / Blow Out (1981)
Director : $in0bi (BDRemux/1080p)
Writing application : VirtualDubMod 1.5.10.2 (build 2540/release)
Writing library : VirtualDubMod build 2540/release
Video
ID : 0
Format : MPEG-4 Visual
Format profile : Advanced Simple@L5
Format settings, BVOP : 2
Format settings, QPel : No
Format settings, GMC : No warppoints
Format settings, Matrix : Custom
Codec ID : XVID
Codec ID/Hint : XviD
Duration : 1h 48mn
Bit rate : 1 730 Kbps
Width : 720 pixels
Height : 304 pixels
Display aspect ratio : 2.35:1
Frame rate : 23.976 fps
Color space : YUV
Chroma subsampling : 4:2:0
Bit depth : 8 bits
Scan type : Progressive
Compression mode : Lossy
Bits/(Pixel*Frame) : 0.330
Stream size : 1.31 GiB (90%)
Writing library : XviD 65
Audio
ID : 1
Format : AC-3
Format/Info : Audio Coding 3
Mode extension : CM (complete main)
Format settings, Endianness : Big
Codec ID : 2000
Duration : 1h 48mn
Bit rate mode : Constant
Bit rate : 192 Kbps
Channel(s) : 2 channels
Channel positions : Front: L R
Sampling rate : 48.0 KHz
Bit depth : 16 bits
Compression mode : Lossy
Stream size : 148 MiB (10%)
Alignment : Split accross interleaves
Interleave, duration : 42 ms (1.00 video frame)
Interleave, preload duration : 500 ms

Скриншоты

To download the content you need:
1. Download and install torrent client [for Windows] or for mobile system
2. Click on [Download]
Attention.
If the test YOU are NOT a ROBOT - does not work, then You are using an outdated browser.
Install the current browser and click on [Download]

Do not work with Yandex browser. Uploading files to them is erroneous.
Security: torrent client is allowed by Kaspersky.

[en.asmlocator.ru].t4209.torrent 
Torrent: Registered [ 2015-11-30 05:45 ] · AA54478C28404052716BB6B33896EC203AF9209D

Download .torrent

Download

15 KB

Status: checked
Completed: 0 times
Size: 1.46 GB
terms.php
[Profile] [PM]
Display posts:    
Reply to topic

Current time is: 31-Mar 17:12

All times are UTC ± 0



You cannot post new topics in this forum
You cannot reply to topics in this forum
You cannot edit your posts in this forum
You cannot delete your posts in this forum
You cannot vote in polls in this forum
You cannot attach files in this forum
You can download files in this forum
Верим фактам, а не вранью Путина! Факт, что Правительство ведёт Россию к истреблению.
Так как численность населения падает, даже не смотря на приток эмигрантов!
Русская нация вымирает и вырождается, смешиваясь с эмигрантами!
Факт, что военных и граждан предприятий заставляют голосовать за партию Единая Россия и Путина
ПОД СТРАХОМ УВОЛЬНЕНИЯ!
Нам не нужно Правительство, блокирующее личную жизнь, интернет, нарушающее сохранность данных.
Все эти действия финансируются за счёт народа!