Исчезновение рейса 412 / The Disappearance of Flight 412 (Джад Тейлор / Jud Taylor) [1974, США, Фантастика, драма, детектив, DVDRip] VO (Den904) + Sub Rus + Original Eng

Reply to topic
DL-List and Torrent activity
Size:  1.16 GB   |    Registered:  4 years 3 months   |    Completed:  0 times

Seeder not seen: 5 months 9 days

 
   
 
 
Author Message

star21 ®

Gender: Female

Longevity: 4 years 4 months

Posts: 551945

Location: Екатеринбург

Post 30-Nov-2015 05:53

[Quote]

Исчезновение рейса 412 / The Disappearance of Flight 412
Страна: США
Жанр: Фантастика, драма, детектив
Год выпуска: 1974
Продолжительность: 01:12:16
Перевод: Одноголосый закадровый (Den904)
Cубтитры: русские
Оригинальная аудиодорожка: английский
Режиссер: Джад Тейлор / Jud Taylor
В ролях: Гленн Форд, Брэдфорд Диллман, Дэвид Соул, Роберт Ф. Лайонс, Гай Стокуэлл, Грег Мюлляви, Стэнли Клэй, Джонатан Голдсмит, Джек Джинг, Кен Керчевал
Описание: Полковник Пит Мур командует группой, испытывающей радар «Уитни». Во время испытаний у группы появляются проблемы с электричеством на борту их самолета. Для решения этой задачи Мур посылает экипаж из четырех человек на борту рейса 412. Вскоре после начала программы испытаний они засекают три отметки на экране радара. Два поднятых по тревоге истребителя таинственно исчезают. В этот момент рейс 412 попадает под наблюдение «Диггер-контроля» — некоей высокопоставленной военной организации, которая занимается проблемами НЛО. Самолет идет на вынужденную посадку. Отважный полковник, не имея никакой информации о своем экипаже, решает расследовать загадку самостоятельно..
Сэмпл: http://sendfile.su/1158519
Качество видео: DVDRip-AVC
Формат видео: MKV
Видео: 720x536 (4:3), 23.976 fps, AVC, ~1859 Kbps, 0.201 bits/pixel
Аудио 1: Russian, 48.0 KHz, AC3, 2 ch, 192 Kbps
Аудио 2: English, 48.0 KHz, AC3, 2 ch, 192 Kbps

MediaInfo

General
Unique ID : 185843679026156461116688208507802470391 (0x8BD030CDDBDC5CFBB33F64830267C7F7)
Complete name : С:\Раздачи\The Disappearance of Flight 412 1974.x264.DVDRip.mkv
Format : Matroska
Format version : Version 4 / Version 2
File size : 1.16 GiB
Duration : 1h 12mn
Overall bit rate : 2 289 Kbps
Encoded date : UTC 2015-09-26 20:14:03
Writing application : mkvmerge v8.3.0 ('Over the Horizon') 64bit
Writing library : libebml v1.3.1 + libmatroska v1.4.2
Video
ID : 1
Format : AVC
Format/Info : Advanced Video Codec
Format profile : High@L4.1
Format settings, CABAC : Yes
Format settings, ReFrames : 10 frames
Codec ID : V_MPEG4/ISO/AVC
Duration : 1h 12mn
Bit rate : 1 859 Kbps
Width : 720 pixels
Height : 536 pixels
Display aspect ratio : 4:3
Frame rate mode : Constant
Frame rate : 23.976 fps
Color space : YUV
Chroma subsampling : 4:2:0
Bit depth : 8 bits
Scan type : Progressive
Bits/(Pixel*Frame) : 0.201
Stream size : 961 MiB (81%)
Writing library : x264 core 130 r2273 b3065e6
Encoding settings : cabac=1 / ref=10 / deblock=1:-2:-2 / analyse=0x3:0x133 / me=umh / subme=11 / psy=1 / psy_rd=1.00:0.15 / mixed_ref=1 / me_range=24 / chroma_me=1 / trellis=2 / 8x8dct=1 / cqm=0 / deadzone=21,11 / fast_pskip=1 / chroma_qp_offset=-3 / threads=6 / lookahead_threads=1 / sliced_threads=0 / nr=0 / decimate=1 / interlaced=0 / bluray_compat=0 / constrained_intra=0 / bframes=10 / b_pyramid=2 / b_adapt=2 / b_bias=0 / direct=1 / weightb=1 / open_gop=0 / weightp=2 / keyint=210 / keyint_min=21 / scenecut=40 / intra_refresh=0 / rc_lookahead=60 / rc=crf / mbtree=1 / crf=18.0 / qcomp=0.60 / qpmin=0 / qpmax=69 / qpstep=4 / ip_ratio=1.25 / aq=1:0.90
Default : Yes
Forced : No
Audio #1
ID : 2
Format : AC-3
Format/Info : Audio Coding 3
Mode extension : CM (complete main)
Format settings, Endianness : Big
Codec ID : A_AC3
Duration : 1h 12mn
Bit rate mode : Constant
Bit rate : 192 Kbps
Channel(s) : 2 channels
Channel positions : Front: L R
Sampling rate : 48.0 KHz
Compression mode : Lossy
Stream size : 99.3 MiB (8%)
Language : Russian
Default : Yes
Forced : No
Audio #2
ID : 3
Format : AC-3
Format/Info : Audio Coding 3
Mode extension : CM (complete main)
Format settings, Endianness : Big
Codec ID : A_AC3
Duration : 1h 12mn
Bit rate mode : Constant
Bit rate : 192 Kbps
Channel(s) : 2 channels
Channel positions : Front: L R
Sampling rate : 48.0 KHz
Compression mode : Lossy
Stream size : 99.3 MiB (8%)
Language : English
Default : No
Forced : No
Text
ID : 4
Format : UTF-8
Codec ID : S_TEXT/UTF8
Codec ID/Info : UTF-8 Plain Text
Language : Russian
Default : No
Forced : No

Скриншот c названием фильма

Скриншоты

To download the content you need:
1. Download and install torrent client [for Windows] or for mobile system
2. Click on [Download]
Attention.
If the test YOU are NOT a ROBOT - does not work, then You are using an outdated browser.
Install the current browser and click on [Download]

Do not work with Yandex browser. Uploading files to them is erroneous.
Security: torrent client is allowed by Kaspersky.

[en.asmlocator.ru].t4208.torrent 
Torrent: Registered [ 2015-11-30 05:45 ] · BFE569DF01DCAD892AC1C9ADF469C074EF5ED7DC

Download .torrent

Download

12 KB

Status: checked
Completed: 0 times
Size: 1.16 GB
terms.php
[Profile] [PM]
Display posts:    
Reply to topic

Current time is: 28-Mar 23:07

All times are UTC ± 0



You cannot post new topics in this forum
You cannot reply to topics in this forum
You cannot edit your posts in this forum
You cannot delete your posts in this forum
You cannot vote in polls in this forum
You cannot attach files in this forum
You can download files in this forum
Верим фактам, а не вранью Путина! Факт, что Правительство ведёт Россию к истреблению.
Так как численность населения падает, даже не смотря на приток эмигрантов!
Русская нация вымирает и вырождается, смешиваясь с эмигрантами!
Факт, что военных и граждан предприятий заставляют голосовать за партию Единая Россия и Путина
ПОД СТРАХОМ УВОЛЬНЕНИЯ!
Нам не нужно Правительство, блокирующее личную жизнь, интернет, нарушающее сохранность данных.
Все эти действия финансируются за счёт народа!