Хитрости Кекеца / Kekceve ukane (Хосе Гэйл / Joze Gale) [1968, Югославия, приключения, семейный, DVDRip] VO (Letric) + Sub Rus

Reply to topic
DL-List and Torrent activity
Size:  1.16 GB   |    Registered:  4 years 4 months   |    Completed:  4 times

Seeder not seen: 3 months 13 days

 
   
 
 
Author Message

star21 ®

Gender: Female

Longevity: 4 years 4 months

Posts: 551945

Location: Екатеринбург

Post 30-Nov-2015 05:53

[Quote]

Хитрости Кекеца / Kekceve ukane
Страна: Югославия
Жанр: Приключения, семейный
Год выпуска: 1968
Продолжительность: 01:15:06
Перевод: Одноголосый закадровый Letric
Cубтитры: русские
Оригинальная аудиодорожка: словенский
Режиссер: Хосе Гэйл / Joze Gale
В ролях: Polde Bibic, Борис Ивановский, Златко Краснич, Jasna Krofak, Fanika Podobnikar, Милорад Радович, Хосе Зупан
Описание: Это третий фильм из цикла о бесстрашном мальчике-пастухе Кекеце, живущем в Юлийских Альпах Словении. Его верный друг Рожле вместе с сестрой Мойцей становятся свидетелями похищения их общего друга, маленького человечка по имени Бринцель, злым браконьером Беданцем. Рожле и Кекец отправляются ему на выручку, но и сами попадают в беду.
Сэмпл: http://multi-up.com/1068463
Качество видео: DVDRip
Формат видео: AVI
Видео: 720x496 (1.45:1), 25 fps, XviD build 73 ~1948 kbps avg, 0.22 bit/pixel
Аудио: 48 kHz, MPEG Layer 3, 2 ch, ~128.00 kbps avg (русский)
Аудио 2: 48 kHz, MPEG Layer 3, 2 ch, ~128.00 kbps avg (словенский)
Формат субтитров: softsub (SRT)

Автор исходного рипа: pmv
Ссылки на предыдущие части трилогии:

MediaInfo

General
Complete name : \Kekceve ukane\Kekec'sTricks.avi
Format : AVI
Format/Info : Audio Video Interleave
File size : 1.16 GiB
Duration : 1h 15mn
Overall bit rate : 2 220 Kbps
Writing application : VirtualDubMod 1.5.10.2 (build 2540/release)
Writing library : VirtualDubMod build 2540/release
Video
ID : 0
Format : MPEG-4 Visual
Format profile : Advanced Simple@L5
Format settings, BVOP : 2
Format settings, QPel : No
Format settings, GMC : No warppoints
Format settings, Matrix : Default (H.263)
Codec ID : XVID
Codec ID/Hint : XviD
Duration : 1h 15mn
Bit rate : 1 950 Kbps
Width : 720 pixels
Height : 496 pixels
Display aspect ratio : 3:2
Frame rate : 25.000 fps
Color space : YUV
Chroma subsampling : 4:2:0
Bit depth : 8 bits
Scan type : Progressive
Compression mode : Lossy
Bits/(Pixel*Frame) : 0.218
Stream size : 1.02 GiB (88%)
Writing library : XviD 73
Audio #1
ID : 1
Format : MPEG Audio
Format version : Version 1
Format profile : Layer 3
Mode : Joint stereo
Mode extension : MS Stereo
Codec ID : 55
Codec ID/Hint : MP3
Duration : 1h 15mn
Bit rate mode : Constant
Bit rate : 128 Kbps
Channel(s) : 2 channels
Sampling rate : 48.0 KHz
Compression mode : Lossy
Stream size : 68.8 MiB (6%)
Alignment : Aligned on interleaves
Interleave, duration : 40 ms (1.00 video frame)
Interleave, preload duratio : 504 ms
Audio #2
ID : 2
Format : MPEG Audio
Format version : Version 1
Format profile : Layer 3
Mode : Joint stereo
Mode extension : MS Stereo
Codec ID : 55
Codec ID/Hint : MP3
Duration : 1h 15mn
Bit rate mode : Constant
Bit rate : 128 Kbps
Channel(s) : 2 channels
Sampling rate : 48.0 KHz
Compression mode : Lossy
Delay relative to video : 100ms
Stream size : 68.8 MiB (6%)
Alignment : Split accross interleaves
Interleave, duration : 40 ms (1.00 video frame)
Interleave, preload duratio : 500 ms

Скриншот c названием фильма

Пример субтитров

130
00:31:13,840 --> 00:31:18,356
Кекец... Кекец...
131
00:31:19,840 --> 00:31:26,598
О, мой дорогой Кекец,
вытащи меня из этой жалкой дыры!
132
00:31:34,440 --> 00:31:39,116
Кекец, Кекец, помоги!
133
00:31:40,520 --> 00:31:42,080
И ты давай помогай!
134
00:31:42,080 --> 00:31:45,152
Чего уставился в потолок?
135
00:31:51,960 --> 00:31:55,919
Спасибо за то, что вы пришли, мальчики!
136
00:31:56,400 --> 00:31:58,240
Спасибо что пришли.
137
00:31:58,240 --> 00:32:00,720
Я знал, что вы не оставите меня в беде.
138
00:32:00,720 --> 00:32:03,400
Постой, я это сделаю,
а ты подержи здесь!
139
00:32:03,400 --> 00:32:09,111
Давайте, мальчики,
скорее, скорее, скорее!
140
00:32:20,760 --> 00:32:22,360
Где ключ?
141
00:32:22,360 --> 00:32:25,318
Откуда мне знать,
я ничего не знаю!
142
00:32:39,920 --> 00:32:42,920
Вы двое как тут оказались?
143
00:32:42,920 --> 00:32:45,275
Мы пастухи.
144
00:32:45,600 --> 00:32:50,799
Смотрите-ка.
Пастухи, говорите!
145
00:32:51,720 --> 00:32:57,716
Вы же не собираетесь отвести Бринцеля
на пастбище, не так ли?
146
00:32:59,560 --> 00:33:03,394
Мы заблудились.
147
00:33:06,200 --> 00:33:10,557
Ну это я вижу... Вижу!
148
00:33:11,080 --> 00:33:15,995
Мы не знали, что это Ваш дом.
149
00:33:16,400 --> 00:33:19,280
Ну теперь вы это знаете.
150
00:33:19,280 --> 00:33:22,397
Взгляните туда!

To download the content you need:
1. Download and install torrent client [for Windows] or for mobile system
2. Click on [Download]
Attention.
If the test YOU are NOT a ROBOT - does not work, then You are using an outdated browser.
Install the current browser and click on [Download]

Do not work with Yandex browser. Uploading files to them is erroneous.
Security: torrent client is allowed by Kaspersky.

[en.asmlocator.ru].t4206.torrent 
Torrent: Registered [ 2015-11-30 05:45 ] · EF3C8F2C37DA713181E1D59CD35D7CC67E6677B1

Download .torrent

Download

12 KB

Status: checked
Completed: 4 times
Size: 1.16 GB
terms.php
[Profile] [PM]
Display posts:    
Reply to topic

Current time is: 31-Mar 16:30

All times are UTC ± 0



You cannot post new topics in this forum
You cannot reply to topics in this forum
You cannot edit your posts in this forum
You cannot delete your posts in this forum
You cannot vote in polls in this forum
You cannot attach files in this forum
You can download files in this forum
Верим фактам, а не вранью Путина! Факт, что Правительство ведёт Россию к истреблению.
Так как численность населения падает, даже не смотря на приток эмигрантов!
Русская нация вымирает и вырождается, смешиваясь с эмигрантами!
Факт, что военных и граждан предприятий заставляют голосовать за партию Единая Россия и Путина
ПОД СТРАХОМ УВОЛЬНЕНИЯ!
Нам не нужно Правительство, блокирующее личную жизнь, интернет, нарушающее сохранность данных.
Все эти действия финансируются за счёт народа!