Электрошок / Shocker (Уэс Крэйвен / Wes Craven) [1989, США, ужасы, HDRip] DVO (REN-TV) + AVO (Андрей Гаврилов)

Reply to topic
DL-List and Torrent activity
Size:  1.35 GB   |    Registered:  4 years 4 months   |    Completed:  0 times

Seeder not seen: Never

 
   
 
 
Author Message

star21 ®

Gender: Female

Longevity: 4 years 5 months

Posts: 551945

Location: Екатеринбург

Post 30-Nov-2015 05:52

[Quote]

Электрошок / Shocker
Страна: США
Жанр: ужасы
Год выпуска: 1989
Продолжительность: 01:49:36
Перевод 1: Профессиональный (двухголосый закадровый) REN-TV
Перевод 2: Авторский (одноголосый закадровый) Андрей Гаврилов
Cубтитры: нет
Оригинальная аудиодорожка: нет
Режиссер: Уэс Крэйвен / Wes Craven
В ролях: Майкл Мерфи, Питер Берг, Митч Пилледжи, Сэм Скарбер, Камилль Купер, Тед Рэйми
Описание: Серийный убийца приговорен к казни на электрическом стуле. Однако он умудряется использовать электрошок, чтобы «воскреснуть» из мертвых. Причём он может выступать как в своём обличии, так и в образе своих жертв. И теперь он жаждет отомстить футболисту, который выдал его полиции.
Доп. информация:
Видеоряд взят с другого трекера.
За звуковую дорожку с телеканала REN-TV большое спасибо Haos-22.
За синхронизацию звуковой дороги REN-TV огромная благодарность JUSTKANT, а за её чистку от шума - team_6strun.
Перевод REN-TV к этому фильму на трекере впервые!
Мужские роли в данном переводе озвучивал Андрей Ярославцев.
Сэмпл: https://www.sendspace.com/file/zl1m6a
Качество видео: HDRip
Формат видео: AVI
Видео: 720x400, 23.976 fps, MPEG-4 Visual, 1368 Kbps, XviD 1.2.1
Аудио 1: 48 KHz, AC3, 2 ch, 192 Kbps
Аудио 2: 48 KHz, AC3, 2 ch, 192 Kbps

MediaInfo

General
Complete name : C:\Users\Электрошок (Ren + Гаврилов).avi
Format : AVI
Format/Info : Audio Video Interleave
File size : 1.35 GiB
Duration : 1h 49mn
Overall bit rate : 1 767 Kbps
Writing application : VirtualDubMod 1.5.10.2 (build 2540/release)
Writing library : VirtualDubMod build 2540/release
Video
ID : 0
Format : MPEG-4 Visual
Format profile : Simple@L3
Format settings, BVOP : No
Format settings, QPel : No
Format settings, GMC : No warppoints
Format settings, Matrix : Default (H.263)
Codec ID : XVID
Codec ID/Hint : XviD
Duration : 1h 49mn
Bit rate : 1 368 Kbps
Width : 720 pixels
Height : 400 pixels
Display aspect ratio : 16:9
Frame rate : 23.976 fps
Color space : YUV
Chroma subsampling : 4:2:0
Bit depth : 8 bits
Scan type : Progressive
Compression mode : Lossy
Bits/(Pixel*Frame) : 0.198
Stream size : 1.05 GiB (77%)
Writing library : XviD 1.2.1 (UTC 2008-12-04)
Audio #1
ID : 1
Format : AC-3
Format/Info : Audio Coding 3
Mode extension : CM (complete main)
Format settings, Endianness : Big
Codec ID : 2000
Duration : 1h 49mn
Bit rate mode : Constant
Bit rate : 192 Kbps
Channel(s) : 2 channels
Channel positions : Front: L R
Sampling rate : 48.0 KHz
Bit depth : 16 bits
Compression mode : Lossy
Stream size : 150 MiB (11%)
Alignment : Split accross interleaves
Interleave, duration : 42 ms (1.00 video frame)
Interleave, preload duration : 500 ms
Audio #2
ID : 2
Format : AC-3
Format/Info : Audio Coding 3
Mode extension : CM (complete main)
Format settings, Endianness : Big
Codec ID : 2000
Duration : 1h 49mn
Bit rate mode : Constant
Bit rate : 192 Kbps
Channel(s) : 2 channels
Channel positions : Front: L R
Sampling rate : 48.0 KHz
Bit depth : 16 bits
Compression mode : Lossy
Stream size : 150 MiB (11%)
Alignment : Split accross interleaves
Interleave, duration : 42 ms (1.00 video frame)
Interleave, preload duration : 500 ms

Скриншоты

To download the content you need:
1. Download and install torrent client [for Windows] or for mobile system
2. Click on [Download]
Attention.
If the test YOU are NOT a ROBOT - does not work, then You are using an outdated browser.
Install the current browser and click on [Download]

Do not work with Yandex browser. Uploading files to them is erroneous.
Security: torrent client is allowed by Kaspersky.

[en.asmlocator.ru].t4199.torrent 
Torrent: Registered [ 2015-11-30 05:45 ] · 858BAD75E762EF9EA3C2C02D3B92BE40CC14BDC0

Download .torrent

Download

14 KB

Status: checked
Completed: 0 times
Size: 1.35 GB
terms.php
[Profile] [PM]
Display posts:    
Reply to topic

Current time is: 08-Apr 03:04

All times are UTC ± 0



You cannot post new topics in this forum
You cannot reply to topics in this forum
You cannot edit your posts in this forum
You cannot delete your posts in this forum
You cannot vote in polls in this forum
You cannot attach files in this forum
You can download files in this forum
Верим фактам, а не вранью Путина! Факт, что Правительство ведёт Россию к истреблению.
Так как численность населения падает, даже не смотря на приток эмигрантов!
Русская нация вымирает и вырождается, смешиваясь с эмигрантами!
Факт, что военных и граждан предприятий заставляют голосовать за партию Единая Россия и Путина
ПОД СТРАХОМ УВОЛЬНЕНИЯ!
Нам не нужно Правительство, блокирующее личную жизнь, интернет, нарушающее сохранность данных.
Все эти действия финансируются за счёт народа!