Красавчик Джонни / Johnny Handsome (Уолтер Хилл / Walter Hill) [1989, США, триллер, драма, криминал, VHSRip] [Fullscreen] AVO (Андрей Гаврилов)

Reply to topic
DL-List and Torrent activity
Size:  1.37 GB   |    Registered:  4 years 6 months   |    Completed:  0 times
DL-List: None

Seeder not seen: Never

 
   
 
 
Author Message

star21 ®

Gender: Female

Longevity: 4 years 7 months

Posts: 551945

Location: Екатеринбург

Post 30-Nov-2015 05:52

[Quote]

Красавчик Джонни / Johnny Handsome
[Full Screen]
Страна: США
Жанр: триллер, драма, криминал
Год выпуска: 1989
Продолжительность: 01:33:40
Перевод: Авторский (одноголосый закадровый) Андрей Гаврилов
Cубтитры: нет
Режиссер: Уолтер Хилл / Walter Hill
В ролях: Микки Рурк (John Sedley a.ka. Johnny Handsome, Johnny Mitchell), Эллен Баркин (Sunny Boyd), Элизабет МакГоверн (Donna McCarty), Морган Фриман (Lt. A.Z. Drones), Форест Уитакер (Dr. Steven Fisher), Лэнс Хенриксен (Rafe Garrett), Скотт Уилсон (Mikey Chalmette), Дэвид Шрэмм (Vic Dumask), Ивонн Брайсленд (Sister Luke), Питер Джейсон (Mr. Bonet), Дж.В. Смит (Larry), Аллан Граф (Bob Lemoyne)
Описание:
Вариант 1. Аннотация от alenavova:
Можно без конца твердить "Да минует нас чаша сия" и считать, что, тюрьма в любом случае - не дар божий, но когда пишет Бог, - не берись исправлять... Джон Сидли, прозванный "Красавчиком" за свое уродливое лицо, - обыкновенный неудачник, о которого все "вытирают ноги". Даже когда старый приятель Майкл, уговаривает его поучаствовать в ограблении, попадается только Джонни. В тюрьме он получает свою законную порцию исправления, и как часть исправительной программы - участие в экспериментах местного врача - пластическую операцию, которая неузнаваемо меняет "Красавчика" (т.е. он становится узнаваемым Микки Рурки из "Девяти с половиной недель", "Дикой орхидеи" и др.). И вот, отбыв срок, на волю выходит обновленннный Джонни, добропорядочный гражданин, привлекательный мужчина, у него впервые в жизни появляется нормальная работа и даже симпатичная девушка... Но иных исправить может только могила...
Вариант 2. Джон Седли (Рурк) родился с обезображенным лицом, и это вкупе с тяжелым детством предопределило его судьбу - он стал преступником. Во время вооруженного ограбления он и его друг Майки оказались обманутым партнерами. Майки был убит, а Джонни пошел в тюрьму, но никого не заложил, рассчитывая выйти на свободу и отомстить. В тюрьме он при помощи гуманного чернокожего хирурга получает новое, очень даже симпатичное и обоятельное лицо Микки Рурка, и со временем его отпускают по амнистии. Он начинает опасную игру, чтобы сквитаться с предателями. Много крови и жесткого насилия. Имеется и любовная линия. Фильм снят по роману Джона Гуди "Три слова Джонни-Красавчика" ("The Three Words of Johnny Handsome"). (Иванов М.)
Доп. информация: Оцифровка VHS (личный архив) и получение VHSRip alenavova
Эксклюзив для rutracker.org. При размещении данного релиза на других сайтах ссылка на автора alenavova обязательна.

Релиз
Сэмпл: https://yadi.sk/i/mec3Pq8KjSKPQ
Качество видео: VHSRip
Формат видео: AVI
Видео: 704x528 (1.33:1), 25 fps, XviD build 50 ~1888 kbps avg, 0.20 bit/pixel
Аудио: 48 kHz, AC3 Dolby Digital, 2/0 (L,R) ch, ~192 kbps

MediaInfo

Красавчик Джонни - Johnny Handsome (by alenavova).avi
Format : AVI
Format/Info : Audio Video Interleave
File size : 1.37 GiB
Duration : 1h 33mn
Overall bit rate : 2 091 Kbps
Movie name : Красавчик Джонни - Johnny Handsome (by alenavova)
Director : by alenavova
Writing application : VirtualDubMod 1.5.10.3 | www.virtualdub-fr.org || (build 2550/release)
Copyright : Edich2
Comment : RuTracker.org
Video
ID : 0
Format : MPEG-4 Visual
Format profile : Advanced Simple@L5
Format settings, BVOP : 1
Format settings, QPel : No
Format settings, GMC : No warppoints
Format settings, Matrix : Default (MPEG)
Codec ID : XVID
Codec ID/Hint : XviD
Duration : 1h 33mn
Bit rate : 1 889 Kbps
Width : 704 pixels
Height : 528 pixels
Display aspect ratio : 4:3
Frame rate : 25.000 fps
Color space : YUV
Chroma subsampling : 4:2:0
Bit depth : 8 bits
Scan type : Progressive
Compression mode : Lossy
Bits/(Pixel*Frame) : 0.203
Stream size : 1.24 GiB (90%)
Writing library : XviD 1.2.1 (UTC 2008-12-04)
Audio
ID : 1
Format : AC-3
Format/Info : Audio Coding 3
Mode extension : CM (complete main)
Format settings, Endianness : Big
Codec ID : 2000
Duration : 1h 33mn
Bit rate mode : Constant
Bit rate : 192 Kbps
Channel(s) : 2 channels
Channel positions : Front: L R
Sampling rate : 48.0 KHz
Bit depth : 16 bits
Compression mode : Lossy
Stream size : 129 MiB (9%)
Alignment : Split accross interleaves
Interleave, duration : 40 ms (1.00 video frame)
Interleave, preload duration : 500 ms

Скриншоты


To download the content you need:
1. Download and install torrent client [for Windows] or for mobile system
2. Click on [Download]
Attention.
If the test YOU are NOT a ROBOT - does not work, then You are using an outdated browser.
Install the current browser and click on [Download]

Do not work with Yandex browser. Uploading files to them is erroneous.
Security: torrent client is allowed by Kaspersky.

[en.asmlocator.ru].t4198.torrent 
Torrent: Registered [ 2015-11-30 05:45 ] · 646DB5C112DE0A49770688B145BF8751706C6D47

Download .torrent

Download

14 KB

Status: checked
Completed: 0 times
Size: 1.37 GB
terms.php
[Profile] [PM]
Display posts:    
Reply to topic

Current time is: 05-Jun 15:04

All times are UTC ± 0



You cannot post new topics in this forum
You cannot reply to topics in this forum
You cannot edit your posts in this forum
You cannot delete your posts in this forum
You cannot vote in polls in this forum
You cannot attach files in this forum
You can download files in this forum
Верим фактам, а не вранью Путина! Факт, что Правительство ведёт Россию к истреблению.
Так как численность населения падает, даже не смотря на приток эмигрантов!
Русская нация вымирает и вырождается, смешиваясь с эмигрантами!
Факт, что военных и граждан предприятий заставляют голосовать за партию Единая Россия и Путина
ПОД СТРАХОМ УВОЛЬНЕНИЯ!
Нам не нужно Правительство, блокирующее личную жизнь, интернет, нарушающее сохранность данных.
Все эти действия финансируются за счёт народа!