Пьянь / Пьяница / Алкаш / Завсегдатай баров / Барфлай / Barfly (Барбет Шрёдер / Barbet Schroeder) [1987, США, драма, мелодрама, комедия, VHSRip] [FullScreen] AVO (Алексей Михалёв)

Reply to topic
DL-List and Torrent activity
Size:  1.37 GB   |    Registered:  4 years 4 months   |    Completed:  0 times

Seeder not seen: Never

 
   
 
 
Author Message

star21 ®

Gender: Female

Longevity: 4 years 4 months

Posts: 551945

Location: Екатеринбург

Post 30-Nov-2015 05:52

[Quote]

Пьянь / Пьяница / Алкаш / Завсегдатай баров / Барфлай / Barfly
[FullScreen]
Страна: США
Жанр: драма, мелодрама, комедия
Год выпуска: 1987
Продолжительность: 01:39:38
Перевод: Авторский (одноголосый закадровый) Алексей Михалёв
Cубтитры: нет
Режиссер: Барбет Шрёдер / Barbet Schroeder
В ролях: Микки Рурк, Фэй Данауэй, Элис Крайдж, Джек Нэнс, Дж. К. Куин, Фрэнк Сталлоне, Сэнди Мартин, Роберта Бэссин
Описание:
Аннотация от alenavova:
В отличие от большинства американских фильмов в этой неторопливой, тщательно сделанной ленте нет ни лихой завязки, ни стрельбы, разве что несколько драк. И сам герой - в общем-то не герой, а опустившийся, никчемный, но в чем-то очень трогательный пьяница, пишущий то ли стихи, то ли прозу в свои редкие минуты просветления. Эдакий американский Веничка Ерофеев. Кочуя по кабакам, Генри Чимаски находит себе подружку-алкоголичку. Они заботятся друг о друге, вместе радуются и горюют, устраивают сцены ревности... Блестящему актерскому дуэту "Микки Рурки - Фэй Данауэй" не требуется помощь других партнеров. Им достаточно блестящей режиссуры Барбет Шредер и отличной операторской работы Робби Мюллера. Прототипом образа Генри стал Чарлз Буковски, американский писатель и поэт, автор сценария этого фильма, поставленного по его автобиографическим рассказам.
Доп. информация: Оцифровка VHS (личный архив) и получение VHSRip alenavova
Эксклюзив для rutracker.org. При размещении данного релиза на других сайтах ссылка на автора alenavova обязательна.

Релиз
Сэмпл: https://yadi.sk/i/shws427JjSb2z
Качество видео: VHSRip
Формат видео: AVI
Видео: 704x528 (1.33:1), 25 fps, XviD build 50 ~1764 kbps avg, 0.19 bit/pixel
Аудио: 48 kHz, AC3 Dolby Digital, 2/0 (L,R) ch, ~192 kbps

MediaInfo

Пьянь - Barfly (by alenavova).avi
Format : AVI
Format/Info : Audio Video Interleave
File size : 1.37 GiB
Duration : 1h 39mn
Overall bit rate : 1 966 Kbps
Movie name : Пьянь - Barfly (by alenavova)
Director : by alenavova
Writing application : VirtualDubMod 1.5.10.3 | www.virtualdub-fr.org || (build 2550/release)
Copyright : Edich2
Comment : RuTracker.org
Video
ID : 0
Format : MPEG-4 Visual
Format profile : Advanced Simple@L5
Format settings, BVOP : 1
Format settings, QPel : No
Format settings, GMC : No warppoints
Format settings, Matrix : Default (MPEG)
Codec ID : XVID
Codec ID/Hint : XviD
Duration : 1h 39mn
Bit rate : 1 765 Kbps
Width : 704 pixels
Height : 528 pixels
Display aspect ratio : 4:3
Frame rate : 25.000 fps
Color space : YUV
Chroma subsampling : 4:2:0
Bit depth : 8 bits
Scan type : Progressive
Compression mode : Lossy
Bits/(Pixel*Frame) : 0.190
Stream size : 1.23 GiB (90%)
Writing library : XviD 1.2.1 (UTC 2008-12-04)
Audio
ID : 1
Format : AC-3
Format/Info : Audio Coding 3
Mode extension : CM (complete main)
Format settings, Endianness : Big
Codec ID : 2000
Duration : 1h 39mn
Bit rate mode : Constant
Bit rate : 192 Kbps
Channel(s) : 2 channels
Channel positions : Front: L R
Sampling rate : 48.0 KHz
Bit depth : 16 bits
Compression mode : Lossy
Stream size : 137 MiB (10%)
Alignment : Split accross interleaves
Interleave, duration : 40 ms (1.00 video frame)
Interleave, preload duration : 500 ms

Скриншоты


To download the content you need:
1. Download and install torrent client [for Windows] or for mobile system
2. Click on [Download]
Attention.
If the test YOU are NOT a ROBOT - does not work, then You are using an outdated browser.
Install the current browser and click on [Download]

Do not work with Yandex browser. Uploading files to them is erroneous.
Security: torrent client is allowed by Kaspersky.

[en.asmlocator.ru].t4197.torrent 
Torrent: Registered [ 2015-11-30 05:45 ] · DA8929622BB3CD2726DB54DA5BF6D0F4AF30E900

Download .torrent

Download

14 KB

Status: checked
Completed: 0 times
Size: 1.37 GB
terms.php
[Profile] [PM]
Display posts:    
Reply to topic

Current time is: 31-Mar 15:59

All times are UTC ± 0



You cannot post new topics in this forum
You cannot reply to topics in this forum
You cannot edit your posts in this forum
You cannot delete your posts in this forum
You cannot vote in polls in this forum
You cannot attach files in this forum
You can download files in this forum
Верим фактам, а не вранью Путина! Факт, что Правительство ведёт Россию к истреблению.
Так как численность населения падает, даже не смотря на приток эмигрантов!
Русская нация вымирает и вырождается, смешиваясь с эмигрантами!
Факт, что военных и граждан предприятий заставляют голосовать за партию Единая Россия и Путина
ПОД СТРАХОМ УВОЛЬНЕНИЯ!
Нам не нужно Правительство, блокирующее личную жизнь, интернет, нарушающее сохранность данных.
Все эти действия финансируются за счёт народа!