Бодрость духов / High Spirits (Нил Джордан / Neil Jordan) [1988, Великобритания, США, фэнтези, комедия, HDRip] DVO (НТВ+)

Reply to topic
DL-List and Torrent activity
Size:  1.37 GB   |    Registered:  4 years 3 months   |    Completed:  0 times

Seeder not seen: Never

 
   
 
 
Author Message

star21 ®

Gender: Female

Longevity: 4 years 4 months

Posts: 551945

Location: Екатеринбург

Post 30-Nov-2015 05:52

[Quote]

Бодрость духов
High Spirits

Страна: Великобритания, США
Жанр: фэнтези, комедия
Год выпуска: 1988
Продолжительность: 01:37:47-Перевод: Профессиональный (двухголосый закадровый) НТВ+
Текст читали: Наталья Казначеева и Игорь Тарадайкин
Cубтитры: нет
Оригинальная аудиодорожка: нет-Режиссер: Нил Джордан / Neil Jordan
В ролях: Питер О’Тул, Стив Гуттенберг, Дэрил Ханна, Беверли Д’Анджело, Дженнифер Тилли, Питер Галлахер, Лиам Нисон, Конни Бут, Донал МакКанн, Мартин Ферреро-Описание: Однажды режиссеру Нилу Джордану попалась на глаза газета, где рассказывалось о предприимчивом бизнесмене, который устраивал для иностранных туристов развлекательные поездки по "домам с привидениями". Вдохновившись, Н.Джордан написал сценарий и поставил фильм.
Питер О'Тул играет хозяина замка Питера Планкетта. Он на грани отчаяния - долги, отсутствие постояльцев заставляют его пойти на хитрость. Планкетт пускает слухи, что дом навещают призраки. Трюк подействовал: ватага шумных американцев въезжает в замок. Здесь-то и начинаются подлинные чудеса, потому что в старом поместье, оказывается, и в самом деле обитают привидения
-Доп. информация:
О переводе: Перевод на трекере появляется впервые
За запись перевода НТВ+ с MGMHD - большое спасибо-Сэмпл: минута49сек-Качество видео: HDRip
Формат видео: AVI
Видео: XVID, 720х384, 1,85:1, 23,976 кадра/сек, 1808 Кбит/сек
Аудио: AC-3, 48,0 КГц, 192 Кбит/сек, 2 канала (двухголосый НТВ+)

MediaInfo

Общее
Полное имя : Бодрость духов.1988.HDRip.НТВ+.avi
Формат : AVI
Формат/Информация : Audio Video Interleave
Размер файла : 1,37 Гбайт
Продолжительность : 1 ч. 37 м.
Общий поток : 2009 Кбит/сек
Дата записи : 28.09.2015
Программа кодирования : VirtualDubModRus 1.5.10.2 (build 2542/release)
Библиотека кодирования : VirtualDubMod build 2542/release
Авторское право : mister55555
Примечание : для rutracker.org
Видео
Идентификатор : 0
Формат : MPEG-4 Visual
Профиль формата : Advanced Simple@L5
Параметр BVOP формата : 2
Параметр QPel формата : Нет
Параметр GMC формата : Без точки перехода
Параметр матрицы формата : Выборочная
Идентификатор кодека : XVID
Идентификатор кодека/Подсказка : XviD
Продолжительность : 1 ч. 37 м.
Битрейт : 1808 Кбит/сек
Ширина : 720 пикселей
Высота : 384 пикселя
Соотношение сторон : 1,85:1
Частота кадров : 23,976 кадра/сек
Цветовое пространство : YUV
Субдискретизация насыщенности : 4:2:0
Битовая глубина : 8 бит
Тип развёртки : Прогрессивная
Метод сжатия : С потерями
Бит/(Пиксели*Кадры) : 0.273
Размер потока : 1,23 Гбайт (90%)
Библиотека кодирования : XviD 73
Аудио
Идентификатор : 1
Формат : AC-3
Формат/Информация : Audio Coding 3
Расширение режима : CM (complete main)
Параметр Endianness формата : Big
Идентификатор кодека : 2000
Продолжительность : 1 ч. 37 м.
Вид битрейта : Постоянный
Битрейт : 192 Кбит/сек
Каналы : 2 канала
Расположение каналов : Front: L R
Частота : 48,0 КГц
Метод сжатия : С потерями
Размер потока : 134 Мбайт (10%)
Выравнивание : Разделение по промежуткам
Продолжительность промежутка : 42 мс. (1,00 видеокадр)
Время предзагрузки промежутка : 500 мс.
Заголовок : двухголосый НТВ+

Скриншоты

To download the content you need:
1. Download and install torrent client [for Windows] or for mobile system
2. Click on [Download]
Attention.
If the test YOU are NOT a ROBOT - does not work, then You are using an outdated browser.
Install the current browser and click on [Download]

Do not work with Yandex browser. Uploading files to them is erroneous.
Security: torrent client is allowed by Kaspersky.

[en.asmlocator.ru].t4196.torrent 
Torrent: Registered [ 2015-11-30 05:45 ] · 77236A0F21B9BBA3A3192E39198D86A7EAAFB92E

Download .torrent

Download

14 KB

Status: checked
Completed: 0 times
Size: 1.37 GB
terms.php
[Profile] [PM]
Display posts:    
Reply to topic

Current time is: 29-Mar 00:11

All times are UTC ± 0



You cannot post new topics in this forum
You cannot reply to topics in this forum
You cannot edit your posts in this forum
You cannot delete your posts in this forum
You cannot vote in polls in this forum
You cannot attach files in this forum
You can download files in this forum
Верим фактам, а не вранью Путина! Факт, что Правительство ведёт Россию к истреблению.
Так как численность населения падает, даже не смотря на приток эмигрантов!
Русская нация вымирает и вырождается, смешиваясь с эмигрантами!
Факт, что военных и граждан предприятий заставляют голосовать за партию Единая Россия и Путина
ПОД СТРАХОМ УВОЛЬНЕНИЯ!
Нам не нужно Правительство, блокирующее личную жизнь, интернет, нарушающее сохранность данных.
Все эти действия финансируются за счёт народа!