Любовь убийцы / Killer\'s Romance (Филлип Ко / Phillip Ko) [1990, Гонконг, Великобритания, боевик, DVDRip] AVO (Александр Кашкин)

Reply to topic
DL-List and Torrent activity
Size:  1.32 GB   |    Registered:  4 years 4 months   |    Completed:  0 times

Seeder not seen: Never

 
   
 
 
Author Message

star21 ®

Gender: Female

Longevity: 4 years 5 months

Posts: 551945

Location: Екатеринбург

Post 30-Nov-2015 05:52

[Quote]

Любовь убийцы / Killer's Romance
Страна: Гонконг, Великобритания
Жанр: боевик
Год выпуска: 1990
Продолжительность: 01:33:42
Перевод: Авторский (одноголосый закадровый) Александр Кашкин
Cубтитры: нет
Оригинальная аудиодорожка: нет
Режиссер: Филлип Ко / Phillip Ko
В ролях: Саймон Ям, Джои Ван, Ясуёси Сикамура, Филлип Ко, Маркус Фокс
Описание: Грязный заговор представителей китайской «триады» и японской «Якудза» приводит к жестокой войне на улицах Лондона, в центре которой оказывается сын главы японской группировки Джеффри, мстящий за смерть своего отца и защищающий свою возлюбленную.
Доп. информация:
Звуковая дорога с переводом А. Кашкина взята из этой раздачи , за которую благодарим allexxxin.
За видеоряд и синхронизацию звуковой дороги огромная благодарность xelon2006.
Сэмпл: https://www.sendspace.com/file/haw7ve
Качество видео: DVDRip
Формат видео: AVI
Видео: 720x416, 25.000 fps, MPEG-4 Visual, 1812 Kbps, XviD 1.2.0
Аудио: 44.1 KHz, AC3, 2 ch, 192 Kbps

MediaInfo

General
Complete name : J:\Готовые рипы 3\Любовь убийцы.avi
Format : AVI
Format/Info : Audio Video Interleave
File size : 1.32 GiB
Duration : 1h 33mn
Overall bit rate : 2 013 Kbps
Video
ID : 0
Format : MPEG-4 Visual
Format profile : Advanced Simple@L5
Format settings, BVOP : 1
Format settings, QPel : No
Format settings, GMC : No warppoints
Format settings, Matrix : Default (MPEG)
Codec ID : XVID
Codec ID/Hint : XviD
Duration : 1h 33mn
Bit rate : 1 812 Kbps
Width : 720 pixels
Height : 416 pixels
Display aspect ratio : 1.731
Frame rate : 25.000 fps
Color space : YUV
Chroma subsampling : 4:2:0
Bit depth : 8 bits
Scan type : Progressive
Compression mode : Lossy
Bits/(Pixel*Frame) : 0.242
Stream size : 1.19 GiB (90%)
Writing library : XviD 1.2.0.dev47 (UTC 2006-11-01)
Audio
ID : 1
Format : AC-3
Format/Info : Audio Coding 3
Mode extension : CM (complete main)
Format settings, Endianness : Big
Codec ID : 2000
Duration : 1h 33mn
Bit rate mode : Constant
Bit rate : 192 Kbps
Channel(s) : 2 channels
Channel positions : Front: L R
Sampling rate : 44.1 KHz
Bit depth : 16 bits
Compression mode : Lossy
Stream size : 128 MiB (10%)
Alignment : Aligned on interleaves
Interleave, duration : 40 ms (1.00 video frame)
Interleave, preload duration : 522 ms

Скриншоты

To download the content you need:
1. Download and install torrent client [for Windows] or for mobile system
2. Click on [Download]
Attention.
If the test YOU are NOT a ROBOT - does not work, then You are using an outdated browser.
Install the current browser and click on [Download]

Do not work with Yandex browser. Uploading files to them is erroneous.
Security: torrent client is allowed by Kaspersky.

[en.asmlocator.ru].t4195.torrent 
Torrent: Registered [ 2015-11-30 05:45 ] · 2CF7295696C546BE6457E5F6BF9CA7EE6ACEB6B3

Download .torrent

Download

14 KB

Status: checked
Completed: 0 times
Size: 1.32 GB
terms.php
[Profile] [PM]
Display posts:    
Reply to topic

Current time is: 07-Apr 20:26

All times are UTC ± 0



You cannot post new topics in this forum
You cannot reply to topics in this forum
You cannot edit your posts in this forum
You cannot delete your posts in this forum
You cannot vote in polls in this forum
You cannot attach files in this forum
You can download files in this forum
Верим фактам, а не вранью Путина! Факт, что Правительство ведёт Россию к истреблению.
Так как численность населения падает, даже не смотря на приток эмигрантов!
Русская нация вымирает и вырождается, смешиваясь с эмигрантами!
Факт, что военных и граждан предприятий заставляют голосовать за партию Единая Россия и Путина
ПОД СТРАХОМ УВОЛЬНЕНИЯ!
Нам не нужно Правительство, блокирующее личную жизнь, интернет, нарушающее сохранность данных.
Все эти действия финансируются за счёт народа!