Два злобных глаза / Two Evil Eyes / Due occhi diabolici (Дарио Ардженто / Dario Argento, Джордж А. Ромеро / George A. Romero) [1990, США, Италия, ужасы, BDRip] AVO (Гаврилов)

Reply to topic
DL-List and Torrent activity
Size:  745 MB   |    Registered:  4 years 4 months   |    Completed:  0 times

Seeder not seen: Never

 
   
 
 
Author Message

star21 ®

Gender: Female

Longevity: 4 years 4 months

Posts: 551945

Location: Екатеринбург

Post 30-Nov-2015 05:52

[Quote]

Два злобных глаза / Two Evil Eyes / Due occhi diabolici
Страна: США, Италия
Жанр: ужасы
Год выпуска: 1990
Продолжительность: 01:59:55
Перевод: Авторский (одноголосый закадровый) - Андрей Гаврилов с dvd

Режиссер: Дарио Ардженто / Dario Argento, Джордж А. Ромеро / George A. Romero
В ролях: Эдриенн Барбо, Реми Зада, Бинго О’Мэлли, Джефф Хауэлл, Э. Г. Маршалл, Харви Кейтель, Мэдлин Поттер, Джон Эймос, Сэлли Кёркленд, Ким Хантер, Холтер Грэм, Мартин Болсам, Чак Эбер, Джонатан Адамс, Том Аткинс, Митчел Бэйсман, Джули Бенц, Барбара Брайн, Марио Капуто
Описание: Экранизация двух рассказов Эдгара Алана По. В первом жена и ее любовник ожидают, что вечно больной муж вот-вот умрет, но поскольку господин Вальдемар не хочет умирать, любовник жены помогает ему войти в коматозное состояние, из которого путь только в могилу… или стать зомби. О чем новоиспеченная вдова узнает раньше других. Во втором, напротив, муж очень не любил свою жену и замуровал ее в стене собственного дома. А заодно замуровал и ненавистную кошку жены. А та оказалась беременной и понесла…
Качество видео:
Формат видео: AVI
Видео: 640x352 (1.82:1), 23.976 fps, XviD build 73 ~731 kbps avg, 0.14 bit/pixel
Аудио: 48 kHz, MPEG Layer 3, 2 ch, ~128.00 kbps

MediaInfo

Общее
Полное имя : H:\Two.Evil.Eyes.1990.bdrip_[745]_[teko].avi
Формат : AVI
Формат/Информация : Audio Video Interleave
Размер файла : 745 Мбайт
Продолжительность : 1 ч. 59 м.
Общий поток : 869 Кбит/сек
Программа кодирования : VirtualDubMod 1.5.10.3 | www.virtualdub-fr.org || (build 2550/release)
Библиотека кодирования : VirtualDubMod build 2550/release
Видео
Идентификатор : 0
Формат : MPEG-4 Visual
Профиль формата : Advanced Simple@L5
Параметр BVOP формата : 2
Параметр QPel формата : Нет
Параметр GMC формата : Без точки перехода
Параметр матрицы формата : Выборочная
Идентификатор кодека : XVID
Идентификатор кодека/Подсказка : XviD
Продолжительность : 1 ч. 59 м.
Битрейт : 731 Кбит/сек
Ширина : 640 пикселей
Высота : 352 пикселя
Соотношение сторон : 16:9
Частота кадров : 23,976 кадра/сек
Цветовое пространство : YUV
Субдискретизация насыщенности : 4:2:0
Битовая глубина : 8 бит
Тип развёртки : Прогрессивная
Метод сжатия : С потерями
Бит/(Пиксели*Кадры) : 0.135
Размер потока : 627 Мбайт (84%)
Библиотека кодирования : XviD 73
Аудио
Идентификатор : 1
Формат : MPEG Audio
Версия формата : Version 1
Профиль формата : Layer 3
Идентификатор кодека : 55
Идентификатор кодека/Подсказка : MP3
Продолжительность : 1 ч. 59 м.
Вид битрейта : Постоянный
Битрейт : 128 Кбит/сек
Каналы : 2 канала
Частота : 48,0 КГц
Метод сжатия : С потерями
Размер потока : 110 Мбайт (15%)
Выравнивание : Соединение по промежуткам
Продолжительность промежутка : 42 мс. (1,00 видеокадр)
Время предзагрузки промежутка : 504 мс.
Библиотека кодирования : LAME3.98r
Настройки программы : -m s -V 4 -q 2 -lowpass 17 -b 128

Скриншоты

Релиз группы:--

To download the content you need:
1. Download and install torrent client [for Windows] or for mobile system
2. Click on [Download]
Attention.
If the test YOU are NOT a ROBOT - does not work, then You are using an outdated browser.
Install the current browser and click on [Download]

Do not work with Yandex browser. Uploading files to them is erroneous.
Security: torrent client is allowed by Kaspersky.

[en.asmlocator.ru].t4192.torrent 
Torrent: Registered [ 2015-11-30 05:45 ] · D4CAF7D72C90AEB0723A11D067B4D853868355C8

Download .torrent

Download

15 KB

Status: checked
Completed: 0 times
Size: 745 MB
terms.php
[Profile] [PM]
Display posts:    
Reply to topic

Current time is: 03-Apr 04:18

All times are UTC ± 0



You cannot post new topics in this forum
You cannot reply to topics in this forum
You cannot edit your posts in this forum
You cannot delete your posts in this forum
You cannot vote in polls in this forum
You cannot attach files in this forum
You can download files in this forum
Верим фактам, а не вранью Путина! Факт, что Правительство ведёт Россию к истреблению.
Так как численность населения падает, даже не смотря на приток эмигрантов!
Русская нация вымирает и вырождается, смешиваясь с эмигрантами!
Факт, что военных и граждан предприятий заставляют голосовать за партию Единая Россия и Путина
ПОД СТРАХОМ УВОЛЬНЕНИЯ!
Нам не нужно Правительство, блокирующее личную жизнь, интернет, нарушающее сохранность данных.
Все эти действия финансируются за счёт народа!