Катастрофа в шахте № 7 / Disaster at Silo 7 (Лэрри Илайкэнн Larry Elikann) [1988, США, фантастика, триллер, драма, VHSRip] AVO (Горчаков) + Original Eng

Reply to topic
DL-List and Torrent activity
Size:  830 MB   |    Registered:  4 years 4 months   |    Completed:  1 time

Seeder not seen: 5 months 14 days

 
   
 
 
Author Message

star21 ®

Gender: Female

Longevity: 4 years 4 months

Posts: 551945

Location: Екатеринбург

Post 30-Nov-2015 05:52

[Quote]

Катастрофа в шахте № 7 / Disaster at Silo 7
Страна: США
Жанр: фантастика, триллер, драма
Год выпуска: 1988
Продолжительность: 01:33:30
Перевод: Авторский (одноголосый закадровый) Горчаков
Cубтитры: нет
Оригинальная аудиодорожка: английский
Режиссер: Лэрри Илайкэнн Larry Elikann
В ролях: Рэй Бэйкер, Питер Бойл, Патриция Шарбонно, Перри Кинг, Майкл О’Киф, Джо Спано, Деннис Уивер, Джо Урла, Брент Дженнингс, Кристиан Клименсон
Описание: Сюжет фильма основан на реальных событиях, произошедших 19 сентября 1980 на американской авиабазе Литтл-Рок в Арканзасе. Во время регламентных работ в ракетной шахте один из техников роняет гаечный ключ, который пробивает топливный бак ядерной ракеты «Титан II». В шахту отправляется специальная группа и регистрирует наличие взрывоопасных компонентов. Понимая, что взрыв неизбежен, военное руководство отдаёт приказ о срочной эвакуации разведгруппы, персонала базы и близлежащих городков…
Доп. информация: Благодарность:
Fikaloid - за дорожку DVO с VHS
xelon2006 - за синхрон дорожки.

Релиз
Сэмпл: https://yadi.sk/i/_6doSVlDjZpKB
Качество видео: VHSRip
Формат видео: AVI
Видео: 512x384 (1.33:1), 29.970 fps, XviD build 50 ~915 kbps avg, 0.16 bit/pixel
Аудио: 48 kHz, AC3 Dolby Digital, 2/0 (L,R) ch, ~192 kbps
Аудио 2: 48 kHz, MPEG Layer 3, 2 ch, ~114.59 kbps avg

MediaInfo

Катастрофа в шахте № 7 - Disaster at Silo 7 [by Edich2].avi
Format : AVI
Format/Info : Audio Video Interleave
File size : 830 MiB
Duration : 1h 33mn
Overall bit rate mode : Variable
Overall bit rate : 1 241 Kbps
Movie name : Катастрофа в шахте № 7 - Disaster at Silo 7 [by Edich2]
Director : by Edich2
Writing application : VirtualDubMod 1.5.10.2 (build 2540/release)
Comment : RuTracker.org
Video
ID : 0
Format : MPEG-4 Visual
Format profile : Advanced Simple@L5
Format settings, BVOP : 1
Format settings, QPel : No
Format settings, GMC : No warppoints
Format settings, Matrix : Custom
Codec ID : XVID
Codec ID/Hint : XviD
Duration : 1h 33mn
Bit rate : 917 Kbps
Width : 512 pixels
Height : 384 pixels
Display aspect ratio : 4:3
Frame rate : 29.970 fps
Color space : YUV
Chroma subsampling : 4:2:0
Bit depth : 8 bits
Scan type : Progressive
Compression mode : Lossy
Bits/(Pixel*Frame) : 0.156
Stream size : 613 MiB (74%)
Writing library : XviD 1.2.1 (UTC 2008-12-04)
Audio #1
ID : 1
Format : AC-3
Format/Info : Audio Coding 3
Mode extension : CM (complete main)
Format settings, Endianness : Big
Codec ID : 2000
Duration : 1h 33mn
Bit rate mode : Constant
Bit rate : 192 Kbps
Channel(s) : 2 channels
Channel positions : Front: L R
Sampling rate : 48.0 KHz
Bit depth : 16 bits
Compression mode : Lossy
Stream size : 128 MiB (15%)
Alignment : Split accross interleaves
Interleave, duration : 33 ms (1.00 video frame)
Interleave, preload duration : 500 ms
Audio #2
ID : 2
Format : MPEG Audio
Format version : Version 1
Format profile : Layer 3
Mode : Joint stereo
Mode extension : MS Stereo
Codec ID : 55
Codec ID/Hint : MP3
Duration : 1h 33mn
Bit rate mode : Variable
Bit rate : 115 Kbps
Nominal bit rate : 128 Kbps
Channel(s) : 2 channels
Sampling rate : 48.0 KHz
Compression mode : Lossy
Stream size : 76.6 MiB (9%)
Alignment : Split accross interleaves
Interleave, duration : 33 ms (1.00 video frame)
Interleave, preload duration : 500 ms
Writing library : LAME3.98r
Encoding settings : -m j -V 4 -q 2 -lowpass 17 --abr 128

Скриншоты


To download the content you need:
1. Download and install torrent client [for Windows] or for mobile system
2. Click on [Download]
Attention.
If the test YOU are NOT a ROBOT - does not work, then You are using an outdated browser.
Install the current browser and click on [Download]

Do not work with Yandex browser. Uploading files to them is erroneous.
Security: torrent client is allowed by Kaspersky.

[en.asmlocator.ru].t4189.torrent 
Torrent: Registered [ 2015-11-30 05:45 ] · 2B9859FBEB6D9CB3374B5FBF6877E327F6BB986B

Download .torrent

Download

17 KB

Status: checked
Completed: 1 times
Size: 830 MB
terms.php
[Profile] [PM]
Display posts:    
Reply to topic

Current time is: 03-Apr 05:18

All times are UTC ± 0



You cannot post new topics in this forum
You cannot reply to topics in this forum
You cannot edit your posts in this forum
You cannot delete your posts in this forum
You cannot vote in polls in this forum
You cannot attach files in this forum
You can download files in this forum
Верим фактам, а не вранью Путина! Факт, что Правительство ведёт Россию к истреблению.
Так как численность населения падает, даже не смотря на приток эмигрантов!
Русская нация вымирает и вырождается, смешиваясь с эмигрантами!
Факт, что военных и граждан предприятий заставляют голосовать за партию Единая Россия и Путина
ПОД СТРАХОМ УВОЛЬНЕНИЯ!
Нам не нужно Правительство, блокирующее личную жизнь, интернет, нарушающее сохранность данных.
Все эти действия финансируются за счёт народа!