Мадикен из Юнибаккена / Madicken på Junibacken (Йоран Граффман / Göran Graffman) [1980, Швеция, Детский, семейный, HDRip] VO (Lenape)

Reply to topic
DL-List and Torrent activity
Size:  745 MB   |    Registered:  4 years 4 months   |    Completed:  0 times

Seeder not seen: Never

 
   
 
 
Author Message

star21 ®

Gender: Female

Longevity: 4 years 4 months

Posts: 551945

Location: Екатеринбург

Post 30-Nov-2015 05:52

[Quote]

Мадикен из Юнибаккена / Madicken på Junibacken- Страна: Швеция
Жанр: Детский, семейный
Год выпуска: 1980
Продолжительность: 01:21:59-Перевод: Одноголосый закадровый [Lenape]
Cубтитры: нет-Режиссер: Йоран Граффман / Göran Graffman-В ролях: Юнна Лильендаль, Лив Альстерлунд, Моника Нордквист, Бьёрн Гранат, Лис Нильхайм, Аллан Эдвалль, Биргитта Андерссон, Себастиан Хоканссон, Бьёрн Густафссон, Тед Острём-Описание: Мадикен - озорная, упрямая и смелая девочка, полная жизни; радуется и печалится от души, проказничает и ищет острых ощущений - то с крыши прыгнет, то с призраками компанию водит, то драку устроит. Скучать некогда!-Благодарность: за перевод субтитров, по которым делалась озвучка и за описание фильма спасибо
-Sample | [imdb]http://www.imdb.com/title/tt0081099[/imdb] | КиноПоиск-Тип релиза: HDRip [исх. BDRip 720p]
Формат видео: AVI-Видео: 656x368 (1.78:1), 24.000 fps, XviD build 50, 1132 kbps avg, 0.20 bit/pixel
Аудио: 48 kHz, MPEG Layer 3, 2 ch, 128.00 kbps avg [Russian_VO]-Релиз группы:-

MediaInfo

General
Complete name : D:\Мои релизы\Madicken pa Junibacken_HDRip_VO_Lenape_RG_All_Films.avi
Format : AVI
Format/Info : Audio Video Interleave
File size : 745 MiB
Duration : 1h 21mn
Overall bit rate : 1 270 Kbps
Writing application : VirtualDubMod 1.5.10.3 | www.virtualdub-fr.org || (build 2550/release)
Writing library : VirtualDubMod build 2550/release
Video
ID : 0
Format : MPEG-4 Visual
Format profile : Advanced Simple@L5
Format settings, BVOP : Yes
Format settings, QPel : No
Format settings, GMC : No warppoints
Format settings, Matrix : Custom
Codec ID : XVID
Codec ID/Hint : XviD
Duration : 1h 21mn
Bit rate : 1 133 Kbps
Width : 656 pixels
Height : 368 pixels
Display aspect ratio : 16:9
Frame rate : 24.000 fps
Color space : YUV
Chroma subsampling : 4:2:0
Bit depth : 8 bits
Scan type : Progressive
Compression mode : Lossy
Bits/(Pixel*Frame) : 0.195
Stream size : 664 MiB (89%)
Writing library : XviD 1.2.1 (UTC 2008-12-04)
Audio
ID : 1
Format : MPEG Audio
Format version : Version 1
Format profile : Layer 3
Codec ID : 55
Codec ID/Hint : MP3
Duration : 1h 21mn
Bit rate mode : Constant
Bit rate : 128 Kbps
Channel(s) : 2 channels
Sampling rate : 48.0 KHz
Compression mode : Lossy
Stream size : 75.1 MiB (10%)
Alignment : Aligned on interleaves
Interleave, duration : 42 ms (1.00 video frame)
Interleave, preload duration : 504 ms
Writing library : LAME3.98r
Encoding settings : -m s -V 4 -q 2 -lowpass 17 -b 128

Скриншоты

-Торрент-файл был перезалит 07.10.2015 по причине замены звуковой дорожки (была почищена от шума)

To download the content you need:
1. Download and install torrent client [for Windows] or for mobile system
2. Click on [Download]
Attention.
If the test YOU are NOT a ROBOT - does not work, then You are using an outdated browser.
Install the current browser and click on [Download]

Do not work with Yandex browser. Uploading files to them is erroneous.
Security: torrent client is allowed by Kaspersky.

[en.asmlocator.ru].t4185.torrent 
Torrent: Registered [ 2015-11-30 05:45 ] · 1FD7C0D8B3849CDD5F891E1BE58766871048207D

Download .torrent

Download

15 KB

Status: checked
Completed: 0 times
Size: 745 MB
terms.php
[Profile] [PM]
Display posts:    
Reply to topic

Current time is: 05-Apr 05:00

All times are UTC ± 0



You cannot post new topics in this forum
You cannot reply to topics in this forum
You cannot edit your posts in this forum
You cannot delete your posts in this forum
You cannot vote in polls in this forum
You cannot attach files in this forum
You can download files in this forum
Верим фактам, а не вранью Путина! Факт, что Правительство ведёт Россию к истреблению.
Так как численность населения падает, даже не смотря на приток эмигрантов!
Русская нация вымирает и вырождается, смешиваясь с эмигрантами!
Факт, что военных и граждан предприятий заставляют голосовать за партию Единая Россия и Путина
ПОД СТРАХОМ УВОЛЬНЕНИЯ!
Нам не нужно Правительство, блокирующее личную жизнь, интернет, нарушающее сохранность данных.
Все эти действия финансируются за счёт народа!