Вердикт / The Verdict (Сидни Люмет / Sidney Lumet) [1982, США, Драма, BDRip-AVC] MVO + Dub (USSR) + AVO (М. Иванов) + DVO (Ukr) + Sub Rus, Ukr, Eng + Original Eng

Reply to topic
DL-List and Torrent activity
Size:  5.5 GB   |    Registered:  4 years 4 months   |    Completed:  0 times

Seeder not seen: Never

 
   
 
 
Author Message

star21 ®

Gender: Female

Longevity: 4 years 4 months

Posts: 551945

Location: Екатеринбург

Post 30-Nov-2015 05:52

[Quote]

Вердикт
The Verdict
- Страна: США
Жанр: Драма
Год выпуска: 1982
Продолжительность: 02:08:58
Перевод: Профессиональный (многоголосый закадровый)
Перевод 2: Профессиональный (дублированный) USSR
Перевод 3: Авторский (одноголосый закадровый) М. Иванов Отдельно
Перевод 4: Профессиональный (двухголосый закадровый) Ukr (1+1) Отдельно
Cубтитры: Rus, Ukr, Eng
Оригинальная аудиодорожка: английский-Режиссер:
Сидни Люмет / Sidney Lumet
В ролях:
Пол Ньюман | Paul Newman
Шарлотта Рэмплинг | Charlotte Rampling
Джек Уорден, Джеймс Мейсон, Майло О’Ши, Линдси Краус, Эд Биннс, Джули Бовассо, Роксэнн Харт, Джеймс Хэнди-ОписаниеКогда-то Фрэнк Гэлвин был хорошим адвокатом, но дружба с бутылкой до добра не доводит, и теперь он — консультант по юридическим вопросам в похоронной конторе
Бывший коллега Микки Моррисей, не забывший о способностях Фрэнка, подкидывает ему интересное дело. Это шанс попробовать снова встать на ноги и попытаться занять достойное место в жизни
Молодая женщина, получившая во время родов анестезию, превращается в прикованную к постели тяжелобольную. Ее родственники хотят подать в суд на респектабельную бостонскую больницу и на церковь, которой она принадлежит, чтобы получить компенсацию за причиненный физический и моральный ущерб
Фрэнк уверен, что сторона-ответчик виновна, но ни за что не признает медицинскую ошибку…
-Сэмпл

IMDb: 7.80 (24 320)
Качество видео: BDRip-AVC
Формат видео: MKV
Видео: AVC 4369 Kbps 1040 x 564 (1.844) 23.976 fps
Аудио: AC-3 448 Kbps 6 channels, 48.0 KHz MVO
Аудио 2: AC-3 96.0 Kbps 2 channels, 48.0 KHz DUB USSR
Аудио 3: AC-3 448 Kbps 6 channels, 48.0 KHz Eng
Аудио 4: AC-3 448 Kbps 6 channels, 48.0 KHz AVO М. Иванов Отдельно
Аудио 5: AC-3 192 Kbps 2 channels, 48.0 KHz DVO Ukr (1+1) Отдельно
Формат субтитров: softsub (SRT)

MediaInfo | Log

Log

x264 [info]: frame I:1082 Avg QP:19.04 size: 82602
x264 [info]: frame P:29147 Avg QP:20.17 size: 40955
x264 [info]: frame B:155315 Avg QP:21.87 size: 19617
x264 [info]: consecutive B-frames: 0.8% 0.4% 1.2% 4.6% 9.4% 45.3% 10.7% 4.9% 7.4% 5.7% 4.7% 3.1% 1.9%
x264 [info]: mb I I16..4: 1.7% 87.0% 11.2%
x264 [info]: mb P I16..4: 0.0% 16.0% 1.1% P16..4: 27.8% 34.9% 16.7% 1.4% 0.1% skip: 2.1%
x264 [info]: mb B I16..4: 0.0% 2.1% 0.1% B16..8: 39.4% 24.1% 6.3% direct: 8.8% skip:19.2% L0:51.5% L1:38.0% BI:10.5%
x264 [info]: 8x8 transform intra:93.1% inter:54.8%
x264 [info]: direct mvs spatial:100.0% temporal:0.0%
x264 [info]: coded y,uvDC,uvAC intra: 96.9% 55.5% 20.2% inter: 49.0% 19.8% 0.5%
x264 [info]: i16 v,h,dc,p: 57% 16% 9% 18%
x264 [info]: i8 v,h,dc,ddl,ddr,vr,hd,vl,hu: 10% 6% 15% 10% 13% 12% 11% 11% 12%
x264 [info]: i4 v,h,dc,ddl,ddr,vr,hd,vl,hu: 48% 6% 5% 6% 8% 8% 7% 7% 6%
x264 [info]: i8c dc,h,v,p: 32% 37% 21% 11%
x264 [info]: Weighted P-Frames: Y:5.4% UV:2.5%
x264 [info]: ref P L0: 30.6% 9.6% 19.6% 8.0% 8.2% 5.7% 6.0% 3.1% 3.4% 2.6% 3.0% 0.2% 0.0%
x264 [info]: ref B L0: 46.9% 16.2% 10.9% 6.7% 5.4% 4.9% 4.1% 2.8% 1.5% 0.5%
x264 [info]: ref B L1: 86.0% 14.0%
x264 [info]: kb/s:4476.08
x264 [total]: encoded 185544 frames, 9.02 fps, 4476.08 kb/s, duration 5:42:51.67
Format : Matroska
Format version : Version 4 / Version 2
File size : 4.93 GiB
Duration : 2h 8mn
Overall bit rate : 5 470 Kbps
Encoded date : UTC 2015-10-07 21:37:59
Writing application : mkvmerge v6.7.0 ('Back to the Ground') 32bit built on Jan 8 2014 15:03:17
Writing library : libebml v1.3.0 + libmatroska v1.4.1
Video
ID : 1
Format : AVC
Format/Info : Advanced Video Codec
Format profile : High@L4.1
Format settings, CABAC : Yes
Format settings, ReFrames : 11 frames
Codec ID : V_MPEG4/ISO/AVC
Duration : 2h 8mn
Bit rate : 4 369 Kbps
Width : 1 040 pixels
Height : 564 pixels
Display aspect ratio : 1.85:1
Frame rate mode : Constant
Frame rate : 23.976 fps
Color space : YUV
Chroma subsampling : 4:2:0
Bit depth : 8 bits
Scan type : Progressive
Bits/(Pixel*Frame) : 0.311
Stream size : 3.94 GiB (80%)
Title : The Verdict (1982) [rupeer.com]
Writing library : x264 core 148 r2579kMod 73ae2d1
Encoding settings : cabac=1 / ref=11 / deblock=1:-2:-1 / analyse=0x3:0x133 / me=umh / subme=11 / psy=1 / fade_compensate=0.00 / psy_rd=1.00:0.05 / mixed_ref=1 / me_range=32 / chroma_me=1 / trellis=2 / 8x8dct=1 / cqm=0 / deadzone=21,11 / fast_pskip=0 / chroma_qp_offset=-3 / threads=12 / lookahead_threads=3 / sliced_threads=0 / nr=0 / decimate=1 / interlaced=0 / bluray_compat=0 / constrained_intra=0 / fgo=0 / bframes=12 / b_pyramid=2 / b_adapt=2 / b_bias=0 / direct=3 / weightb=1 / open_gop=0 / weightp=2 / keyint=250 / keyint_min=23 / scenecut=40 / intra_refresh=0 / rc_lookahead=80 / rc=crf / mbtree=0 / crf=19.4000 / qcomp=0.60 / qpmin=0 / qpmax=69 / qpstep=4 / vbv_maxrate=50000 / vbv_bufsize=62500 / crf_max=0.0 / nal_hrd=none / filler=0 / ip_ratio=1.40 / pb_ratio=1.30 / aq=3:0.90
Language : English
Default : Yes
Forced : No
Audio #1
ID : 2
Format : AC-3
Format/Info : Audio Coding 3
Mode extension : CM (complete main)
Format settings, Endianness : Big
Codec ID : A_AC3
Duration : 2h 8mn
Bit rate mode : Constant
Bit rate : 448 Kbps
Channel(s) : 6 channels
Channel positions : Front: L C R, Side: L R, LFE
Sampling rate : 48.0 KHz
Compression mode : Lossy
Stream size : 413 MiB (8%)
Title : MVO
Language : Russian
Default : Yes
Forced : No
Audio #2
ID : 3
Format : AC-3
Format/Info : Audio Coding 3
Mode extension : CM (complete main)
Format settings, Endianness : Big
Codec ID : A_AC3
Duration : 2h 8mn
Bit rate mode : Constant
Bit rate : 96.0 Kbps
Channel(s) : 2 channels
Channel positions : Front: L R
Sampling rate : 48.0 KHz
Compression mode : Lossy
Stream size : 88.6 MiB (2%)
Title : DUB [USSR)
Language : Russian
Default : No
Forced : No
Audio #3
ID : 4
Format : AC-3
Format/Info : Audio Coding 3
Mode extension : CM (complete main)
Format settings, Endianness : Big
Codec ID : A_AC3
Duration : 2h 8mn
Bit rate mode : Constant
Bit rate : 448 Kbps
Channel(s) : 6 channels
Channel positions : Front: L C R, Side: L R, LFE
Sampling rate : 48.0 KHz
Compression mode : Lossy
Stream size : 413 MiB (8%)
Title : Original
Language : English
Default : No
Forced : No
Text #1
ID : 5
Format : UTF-8
Codec ID : S_TEXT/UTF8
Codec ID/Info : UTF-8 Plain Text
Title : Full
Language : Russian
Default : No
Forced : No
Text #2
ID : 6
Format : UTF-8
Codec ID : S_TEXT/UTF8
Codec ID/Info : UTF-8 Plain Text
Title : Full
Language : Ukrainian
Default : No
Forced : No
Text #3
ID : 7
Format : UTF-8
Codec ID : S_TEXT/UTF8
Codec ID/Info : UTF-8 Plain Text
Title : Full
Language : English
Default : No
Forced : No
Menu
00:00:00.000 : en:00:00:00.000
00:01:40.851 : en:00:01:40.851
00:11:03.538 : en:00:11:03.538
00:15:40.565 : en:00:15:40.565
00:17:13.241 : en:00:17:13.241
00:19:38.344 : en:00:19:38.344
00:23:07.177 : en:00:23:07.177
00:25:15.639 : en:00:25:15.639
00:31:40.565 : en:00:31:40.565
00:35:56.613 : en:00:35:56.613
00:42:05.231 : en:00:42:05.231
00:47:00.359 : en:00:47:00.359
00:51:14.989 : en:00:51:14.989
00:55:47.094 : en:00:55:47.094
00:58:48.900 : en:00:58:48.900
01:03:15.291 : en:01:03:15.291
01:05:43.565 : en:01:05:43.565
01:10:10.289 : en:01:10:10.289
01:12:46.529 : en:01:12:46.529
01:16:15.070 : en:01:16:15.070
01:20:22.109 : en:01:20:22.109
01:27:01.550 : en:01:27:01.550
01:29:47.799 : en:01:29:47.799
01:30:57.869 : en:01:30:57.869
01:32:47.270 : en:01:32:47.270
01:39:16.993 : en:01:39:16.993
01:42:25.348 : en:01:42:25.348
01:44:07.491 : en:01:44:07.491
01:47:32.905 : en:01:47:32.905
01:59:47.472 : en:01:59:47.472
02:03:40.413 : en:02:03:40.413
02:06:53.272 : en:02:06:53.272

Скриншоты




To download the content you need:
1. Download and install torrent client [for Windows] or for mobile system
2. Click on [Download]
Attention.
If the test YOU are NOT a ROBOT - does not work, then You are using an outdated browser.
Install the current browser and click on [Download]

Do not work with Yandex browser. Uploading files to them is erroneous.
Security: torrent client is allowed by Kaspersky.

[en.asmlocator.ru].t4184.torrent 
Torrent: Registered [ 2015-11-30 05:45 ] · F99AD6A16072F265CD5E42BC943B679B58D2929E

Download .torrent

Download

28 KB

Status: checked
Completed: 0 times
Size: 5.5 GB
terms.php
[Profile] [PM]
Display posts:    
Reply to topic

Current time is: 31-Mar 18:52

All times are UTC ± 0



You cannot post new topics in this forum
You cannot reply to topics in this forum
You cannot edit your posts in this forum
You cannot delete your posts in this forum
You cannot vote in polls in this forum
You cannot attach files in this forum
You can download files in this forum
Верим фактам, а не вранью Путина! Факт, что Правительство ведёт Россию к истреблению.
Так как численность населения падает, даже не смотря на приток эмигрантов!
Русская нация вымирает и вырождается, смешиваясь с эмигрантами!
Факт, что военных и граждан предприятий заставляют голосовать за партию Единая Россия и Путина
ПОД СТРАХОМ УВОЛЬНЕНИЯ!
Нам не нужно Правительство, блокирующее личную жизнь, интернет, нарушающее сохранность данных.
Все эти действия финансируются за счёт народа!