Парни что Надо / The Right Stuff (Филип Кауфман / Philip Kaufman) [1983, США, драма, приключения, история, BDRip] DVO (НТВ+) + MVO (Варус Видео)

Reply to topic
DL-List and Torrent activity
Size:  2.44 GB   |    Registered:  4 years 4 months   |    Completed:  0 times

Seeder not seen: Never

 
   
 
 
Author Message

star21 ®

Gender: Female

Longevity: 4 years 4 months

Posts: 551945

Location: Екатеринбург

Post 30-Nov-2015 05:52

[Quote]

Парни что Надо / The Right Stuff
Год выпуска: 1983
Страна: США
Жанр: драма, приключения, история
Продолжительность: 03:12:44
Перевод: Профессиональный (двухголосый закадровый) - НТВ+
Перевод 2: Профессиональный (многоголосый закадровый) - Варус Видео
Cубтитры: нет
Режиссер: Филип Кауфман / Philip Kaufman
В ролях: Сэм Шепард (Chuck Yeager), Скотт Гленн (Alan Shepard), Эд Харрис (John Glenn), Деннис Куэйд (Gordon Cooper), Фред Уорд (Gus Grissom), Барбара Херши (Glennis Yeager), Ким Стэнли (Pancho Barnes), Вероника Картрайт (Betty Grissom), Памела Рид (Trudy Cooper), Скотт Полин (Deke Slayton)-Мировая премьера: 21 октября 1983-Описание: 1953 год. Карибское море… Реактивный самолет взлетает с борта авианосца, он просто исчезает в небе. Приборы фиксируют: он перешел границу скорости звука… Эта картина — фрагментарная история американской астронавтики с 1947 по 1963 год, когда после долгих и трагических испытаний, американцы наконец вышли в космос.-Огромная благодарность:
- .
- собственная запись перевода с телеканала НТВ+ в 2010-х годах через спутник.
- собственная оцифровка перевода со своей лицензионной видеокассеты от видео-компании Варус Видео.
- синхронизация переводов.-Данные переводы на трекере появляются впервые.
На русский язык фильм телекомпанией НТВ+.

Текст читают Александр Груздев и Светлана Старикова.
На русский язык фильм озвучен на студии Варус Видео.
Текст читают Рудольф Панков, Валерий Сторожик и Ольга Сирина.-Рейтинг

MPAA: R - Лицам до 17 лет обязательно присутствие взрослого.-Качество видео: BDRip
Формат видео: AVI -> //Сэмпл//
Видео: XviD, 688x384 (16:9), 23.976 fps, 1416 kbps avg
Аудио:
1 - 48 khz, AC3 Dolby Digital, 2/0 (L,R) ch, ~192 kbps [НТВ+] SATRip
2 - 48 khz, AC3 Dolby Digital, 2/0 (L,R) ch, ~192 kbps [Варус Видео] VHSRip отдельным файлом

MediaInfo

General
Complete name : D:\Торрент Файлы\Будущие Релизы на Трекере\2.05 - 2.20 и более гб\Парни что Надо (НТВ+ + Варус Видео)\Парни что Надо (НТВ+).avi
Format : AVI
Format/Info : Audio Video Interleave
Format profile : OpenDML
File size : 2.18 GiB
Duration : 3h 12mn
Overall bit rate : 1 621 Kbps
Writing application : VirtualDubMod 1.5.10.3 | www.virtualdub-fr.org || (build 2550/release)
Writing library : VirtualDubMod build 2550/release
Video
ID : 0
Format : MPEG-4 Visual
Format profile : Advanced Simple@L5
Format settings, BVOP : 1
Format settings, QPel : No
Format settings, GMC : No warppoints
Format settings, Matrix : Custom
Codec ID : XVID
Codec ID/Hint : XviD
Duration : 3h 12mn
Bit rate : 1 416 Kbps
Width : 688 pixels
Height : 384 pixels
Display aspect ratio : 16:9
Frame rate : 23.976 fps
Color space : YUV
Chroma subsampling : 4:2:0
Bit depth : 8 bits
Scan type : Progressive
Compression mode : Lossy
Bits/(Pixel*Frame) : 0.224
Stream size : 1.91 GiB (87%)
Writing library : XviD 73
Audio
ID : 1
Format : AC-3
Format/Info : Audio Coding 3
Mode extension : CM (complete main)
Format settings, Endianness : Big
Codec ID : 2000
Duration : 3h 12mn
Bit rate mode : Constant
Bit rate : 192 Kbps
Channel(s) : 2 channels
Channel positions : Front: L R
Sampling rate : 48.0 KHz
Compression mode : Lossy
Stream size : 265 MiB (12%)
Alignment : Split accross interleaves
Interleave, duration : 42 ms (1.00 video frame)
Interleave, preload duratio : 500 ms

Скриншот c названием фильма

Скриншоты

To download the content you need:
1. Download and install torrent client [for Windows] or for mobile system
2. Click on [Download]
Attention.
If the test YOU are NOT a ROBOT - does not work, then You are using an outdated browser.
Install the current browser and click on [Download]

Do not work with Yandex browser. Uploading files to them is erroneous.
Security: torrent client is allowed by Kaspersky.

[en.asmlocator.ru].t4183.torrent 
Torrent: Registered [ 2015-11-30 05:45 ] · 073A33F5A692B78F3D2C54DDB078EB328657A775

Download .torrent

Download

13 KB

Status: checked
Completed: 0 times
Size: 2.44 GB
terms.php
[Profile] [PM]
Display posts:    
Reply to topic

Current time is: 05-Apr 03:30

All times are UTC ± 0



You cannot post new topics in this forum
You cannot reply to topics in this forum
You cannot edit your posts in this forum
You cannot delete your posts in this forum
You cannot vote in polls in this forum
You cannot attach files in this forum
You can download files in this forum
Верим фактам, а не вранью Путина! Факт, что Правительство ведёт Россию к истреблению.
Так как численность населения падает, даже не смотря на приток эмигрантов!
Русская нация вымирает и вырождается, смешиваясь с эмигрантами!
Факт, что военных и граждан предприятий заставляют голосовать за партию Единая Россия и Путина
ПОД СТРАХОМ УВОЛЬНЕНИЯ!
Нам не нужно Правительство, блокирующее личную жизнь, интернет, нарушающее сохранность данных.
Все эти действия финансируются за счёт народа!