Гаспар и Робинзон / Gaspard et Robinson (Тони Гатлиф / Tony Gatlif) [1990, Франция, Социальная комедия, драма, DVDRip] + Sub Rus

Reply to topic
DL-List and Torrent activity
Size:  703 MB   |    Registered:  4 years 4 months   |    Completed:  0 times

Seeder not seen: Never

 
   
 
 
Author Message

star21 ®

Gender: Female

Longevity: 4 years 4 months

Posts: 551945

Location: Екатеринбург

Post 30-Nov-2015 05:52

[Quote]

Гаспар и Робинзон / Gaspard et Robinson
Страна: Франция
Жанр: Социальная комедия, драма
Год выпуска: 1990
Продолжительность: 01:29:27
Перевод: Субтитры
Cубтитры: русские
Режиссер: Тони Гатлиф / Tony Gatlif
В ролях: Жерар Дармон / Gérard Darmon (Гаспар), Венсан Линдон / Vincent Lindon (Робинзон), Сюзанн Флон / Suzanne Flon (Бабуля), Бенедикт Луайен / Bénédicte Loyen (Роза), Шарлотт Жиро / Charlotte Girault (Ева), Стефани Эскудеро / Stefany Escudero (Сюзи)
Описание: Крепкая дружба связывает Гаспара и Робинзона. Первый - грустный, с тех пор как его бросила жена, а второй, - душевный, успокаивает и развлекает его. Вместе, они ремонтируют на пляже барак, чтобы из него сделать бар. А однажды Робинзон привозит в дом пожилую женщину, которую бросили на дороге...

Сэмпл: http://multi-up.com/1070071
Качество видео: DVDRip
Формат видео: AVI
Видео: XviD, 964Кбит/с, 624x368, 1,696, 25,000 кадров/сек
Аудио: Французский MP3, 2 ch, 128 Кбит/с, 48,0 КГц
Формат субтитров: softsub (SRT)

субтитры

10
00:01:03,680 --> 00:01:07,440
Оператор
ДОМИНИК ШАПЮИ
11
00:01:08,040 --> 00:01:10,610
Монтаж
ОЛИВЬЕ МОФФРУА
12
00:01:10,730 --> 00:01:13,200
Декоратор
ДЭНИС МЕРСЬЕ
13
00:01:13,760 --> 00:01:17,960
Звук
ФРАНСУА МЮЗИ, ЭЛИЗАБЕТ КУКЕ
14
00:01:18,000 --> 00:01:19,440
ЖЕРАР ЛАМП
15
00:01:20,000 --> 00:01:23,760
Директор картины
ЖЕРОМ ШАЛУ
16
00:01:31,520 --> 00:01:35,280
Помощник продюсера
СИЛЬВИ ЖЕНЕВУА
17
00:01:35,840 --> 00:01:39,600
Продюсер
ЖАН-БЕРНАР ФЕТУ
18
00:01:40,200 --> 00:01:43,920
Исполнительный продюсер
РОБЕР БЕНМУССА
19
00:01:44,480 --> 00:01:48,240
Производство
МАРИ ШУРАКИ
20
00:01:48,800 --> 00:01:53,520
Фильм
ТОНИ ГАТЛИФА
21
00:02:27,170 --> 00:02:28,640
Прочту тебе, что я написал.
22
00:02:29,250 --> 00:02:31,810
"Её зовут Жанна.
У меня нет средств".
23
00:02:31,950 --> 00:02:33,200
"Любите её."
24
00:02:33,450 --> 00:02:34,490
Нормально?
25
00:02:34,710 --> 00:02:36,160
Нормально, только...
26
00:02:36,310 --> 00:02:38,060
Что будем делать,
если она проснётся?
27
00:02:38,190 --> 00:02:40,360
Нет, не волнуйся, я ей дал
половинку снотворного.
28
00:02:40,930 --> 00:02:42,320
Давай, пошли.
29
00:03:58,180 --> 00:03:59,460
Мишель!
30
00:04:00,990 --> 00:04:02,520
Мишель!
31
00:06:57,280 --> 00:07:00,330
Эй, бабуля, это вас сюда
ветром принесло?
32
00:07:01,180 --> 00:07:03,580
Вы куда? Там ничего нет.
33
00:07:06,400 --> 00:07:07,990
Что это? Это мне?
34
00:07:10,340 --> 00:07:12,070
Её зовут Жанна.
35
00:07:12,350 --> 00:07:14,070
У меня нет средств.
36
00:07:14,370 --> 00:07:15,520
Любите её.
37
00:07:53,860 --> 00:07:55,430
Мы прибыли.
38
00:07:56,780 --> 00:07:57,730
Идёмте.
39
00:07:58,230 --> 00:08:00,660
Я много ходила,
у меня болят ноги.
40
00:08:00,690 --> 00:08:02,380
Мы приехали домой!

MediaInfo

Формат : AVI
Формат/Информация : Audio Video Interleave
Размер файла : 703 Мбайт
Продолжительность : 1 ч. 29 м.
Общий поток : 1098 Кбит/сек
Программа кодирования : FairUse Wizard - http://fairusewizard.com
Библиотека кодирования : The best and REALLY easy backup tool
Видео
Идентификатор : 0
Формат : MPEG-4 Visual
Профиль формата : Advanced Simple@L5
Параметр BVOP формата : 1
Параметр QPel формата : Нет
Параметр GMC формата : Без точки перехода
Параметр матрицы формата : Default (H.263)
Режим смешивания : Сжатый битовый поток
Идентификатор кодека : XVID
Идентификатор кодека/Подсказка : XviD
Продолжительность : 1 ч. 29 м.
Битрейт : 961 Кбит/сек
Ширина : 624 пикселя
Высота : 368 пикселей
Соотношение сторон : 1,696
Частота кадров : 25,000 кадров/сек
Цветовое пространство : YUV
Субдискретизация насыщенности : 4:2:0
Битовая глубина : 8 бит
Тип развёртки : Прогрессивная
Метод сжатия : С потерями
Бит/(Пиксели*Кадры) : 0.167
Размер потока : 615 Мбайт (87%)
Библиотека кодирования : XviD 1.1.0 (UTC 2005-11-22)
Аудио
Идентификатор : 1
Формат : MPEG Audio
Версия формата : Version 1
Профиль формата : Layer 3
Режим : Joint stereo
Расширение режима : MS Stereo
Идентификатор кодека : 55
Идентификатор кодека/Подсказка : MP3
Продолжительность : 1 ч. 29 м.
Вид битрейта : Постоянный
Битрейт : 128 Кбит/сек
Каналы : 2 канала
Частота : 48,0 КГц
Метод сжатия : С потерями
Размер потока : 81,9 Мбайт (12%)
Выравнивание : Соединение по промежуткам
Продолжительность промежутка : 40 мс. (1,00 видеокадр)
Время предзагрузки промежутка : 504 мс.
Библиотека кодирования : LAME3.97b
Настройки программы : -m j -V 4 -q 2 -lowpass 17 -b 128

Скриншот c названием фильма

Скриншоты



To download the content you need:
1. Download and install torrent client [for Windows] or for mobile system
2. Click on [Download]
Attention.
If the test YOU are NOT a ROBOT - does not work, then You are using an outdated browser.
Install the current browser and click on [Download]

Do not work with Yandex browser. Uploading files to them is erroneous.
Security: torrent client is allowed by Kaspersky.

[en.asmlocator.ru].t4182.torrent 
Torrent: Registered [ 2015-11-30 05:45 ] · D355D10A8951A962C3FEAF5354353945C35904E3

Download .torrent

Download

28 KB

Status: checked
Completed: 0 times
Size: 703 MB
terms.php
[Profile] [PM]
Display posts:    
Reply to topic

Current time is: 04-Apr 15:16

All times are UTC ± 0



You cannot post new topics in this forum
You cannot reply to topics in this forum
You cannot edit your posts in this forum
You cannot delete your posts in this forum
You cannot vote in polls in this forum
You cannot attach files in this forum
You can download files in this forum
Верим фактам, а не вранью Путина! Факт, что Правительство ведёт Россию к истреблению.
Так как численность населения падает, даже не смотря на приток эмигрантов!
Русская нация вымирает и вырождается, смешиваясь с эмигрантами!
Факт, что военных и граждан предприятий заставляют голосовать за партию Единая Россия и Путина
ПОД СТРАХОМ УВОЛЬНЕНИЯ!
Нам не нужно Правительство, блокирующее личную жизнь, интернет, нарушающее сохранность данных.
Все эти действия финансируются за счёт народа!