Бегущий человек / The Running Man (Пол Майкл Глейзер / Paul Michael Glaser) [1987, США, фантастика, DVB] [Fullscreen] MVO (СТС)

Reply to topic
DL-List and Torrent activity
Size:  2.16 GB   |    Registered:  4 years 4 months   |    Completed:  0 times

Seeder not seen: 1 year 10 months

 
   
 
 
Author Message

star21 ®

Gender: Female

Longevity: 4 years 5 months

Posts: 551945

Location: Екатеринбург

Post 30-Nov-2015 05:52

[Quote]

Бегущий человек
The Running Man
Full Screen

Страна: США
Жанр: фантастика
Год выпуска: 1987
Продолжительность: 01:30:58-Перевод: Профессиональный (многоголосый закадровый) СТС
Cубтитры: нет
Оригинальная аудиодорожка: нет-Режиссер: Пол Майкл Глейзер / Paul Michael Glaser
В ролях: Арнольд Шварценеггер, Мария Кончита Алонсо, Яфет Котто, Джим Браун, Профессор Тору Танака, Эрланд ван Лидт, Свен-Оле Торсен, Джесси Вентура, Томас Розалес мл., Курт Фуллер-По мотивам повести Стивена Кинга
Описание: К 2017 году излюбленным развлечением для жителей Америки, превратившейся в полувоенное государство, стало садистское телешоу «Бегущий человек», участники которого не имели ни единого шанса на выживание. Среди них оказался полицейский Бэн Ричардс, отказавшийся расстрелять безоружную толпу голодных людей. Теперь, вместе с собратьями по несчастью, ему предстоит принять участие в безумной гонке со смертью, сразиться с непобедимыми монстрами: Профессором Крио, Бензопилой, Шаровой Молнией и Динамо, и отомстить бесчеловечному хозяину шоу-Доп. информация: Full Screen
DVB имеет иное наполнение кадра, чем BD и DVD
Присутствуют баннеры анонсов
Финальные титры ускорены и совмещены с анонсами
Записав четыре трансляции фильма, удалось убрать несколько баннеров
-Сэмпл: минута38сек-Качество видео: DVB
Формат видео: MKV
Видео: AVC, 720x576, 4:3, 25,000 кадра/сек, 3072 Кбит/сек
Аудио: MP2, 48,0 КГц, 256 Кбит/сек, 2 канала (многоголосый СТС)

Сравнение с DVD 4:3

6 скринов

MediaInfo

Общее
Уникальный идентификатор : 252194593246098131668554396873053250627 (0xBDBAE971EB5D1BD2B19AA07F51BD2443)
Полное имя : Бегущий человек.mkv
Формат : Matroska
Версия формата : Version 2
Размер файла : 2,16 Гбайт
Продолжительность : 1 ч. 30 м.
Общий поток : 3395 Кбит/сек
Дата кодирования : UTC 2015-10-08 09:44:50
Программа кодирования : mkvmerge v8.3.0 ('Over the Horizon') 32bit
Библиотека кодирования : libebml v1.3.1 + libmatroska v1.4.2
Видео
Идентификатор : 1
Формат : AVC
Формат/Информация : Advanced Video Codec
Профиль формата : High@L3
Параметр CABAC формата : Да
Параметр ReFrames формата : 3 кадра
Параметр GOP формата : M=4, N=28
Идентификатор кодека : V_MPEG4/ISO/AVC
Продолжительность : 1 ч. 30 м.
Битрейт : 3072 Кбит/сек
Ширина : 720 пикселей
Высота : 576 пикселей
Соотношение сторон : 4:3
Соотношение сторон в оригинале : 4:3
Режим частоты кадров : Постоянный
Частота кадров : 25,000 кадров/сек
Стандарт вещания : Component
Цветовое пространство : YUV
Субдискретизация насыщенности : 4:2:0
Битовая глубина : 8 бит
Тип развёртки : Чересстрочная
Порядок развёртки : Верхнее поле первое
Бит/(Пиксели*Кадры) : 0.296
Размер потока : 1,95 Гбайт (90%)
Язык : English
Default : Да
Forced : Нет
Цветовой диапазон : Limited
Основные цвета : BT.601 PAL
Характеристики трансфера : BT.470 System B, BT.470 System G
Коэффициенты матрицы : BT.601
Аудио
Идентификатор : 2
Формат : MPEG Audio
Версия формата : Version 1
Профиль формата : Layer 2
Идентификатор кодека : A_MPEG/L2
Идентификатор кодека/Подсказка : MP2
Продолжительность : 1 ч. 30 м.
Вид битрейта : Постоянный
Битрейт : 256 Кбит/сек
Каналы : 2 канала
Частота : 48,0 КГц
Метод сжатия : С потерями
Размер потока : 167 Мбайт (8%)
Язык : Russian
Default : Да
Forced : Нет

Скриншоты

Внимание
08.10.2015 торрент-файл перезалит
убрал 4 баннера и битые кадры

To download the content you need:
1. Download and install torrent client [for Windows] or for mobile system
2. Click on [Download]
Attention.
If the test YOU are NOT a ROBOT - does not work, then You are using an outdated browser.
Install the current browser and click on [Download]

Do not work with Yandex browser. Uploading files to them is erroneous.
Security: torrent client is allowed by Kaspersky.

[en.asmlocator.ru].t4181.torrent 
Torrent: Registered [ 2015-11-30 05:45 ] · C3D3271A75E2F7C94FBC25D3F38733C49D384F3C

Download .torrent

Download

11 KB

Status: checked
Completed: 0 times
Size: 2.16 GB
terms.php
[Profile] [PM]
Display posts:    
Reply to topic

Current time is: 10-Apr 10:02

All times are UTC ± 0



You cannot post new topics in this forum
You cannot reply to topics in this forum
You cannot edit your posts in this forum
You cannot delete your posts in this forum
You cannot vote in polls in this forum
You cannot attach files in this forum
You can download files in this forum
Верим фактам, а не вранью Путина! Факт, что Правительство ведёт Россию к истреблению.
Так как численность населения падает, даже не смотря на приток эмигрантов!
Русская нация вымирает и вырождается, смешиваясь с эмигрантами!
Факт, что военных и граждан предприятий заставляют голосовать за партию Единая Россия и Путина
ПОД СТРАХОМ УВОЛЬНЕНИЯ!
Нам не нужно Правительство, блокирующее личную жизнь, интернет, нарушающее сохранность данных.
Все эти действия финансируются за счёт народа!