Частный Курорт / Private Resort (Джордж Бауэрс / George Bowers) [1985, США, комедия, WEB-DLRip] MVO (СТС)

Reply to topic
DL-List and Torrent activity
Size:  1.39 GB   |    Registered:  4 years 4 months   |    Completed:  0 times

Seeder not seen: Never

 
   
 
 
Author Message

star21 ®

Gender: Female

Longevity: 4 years 4 months

Posts: 551945

Location: Екатеринбург

Post 30-Nov-2015 05:52

[Quote]

Частный Курорт / Private Resort
Год выпуска: 1985
Страна: США
Жанр: комедия
Продолжительность: 01:21:51
Перевод: Профессиональный (многоголосый закадровый) - СТС
Cубтитры: нет
Режиссер: Джордж Бауэрс / George Bowers
В ролях: Роб Морроу (Ben), Джонни Депп (Jack), Эмили Лонгстрет (Patti), Керин О'Брайан (Dana), Гектор Элизондо (The Maestro), Доди Гудмен (Mrs. Rawlings), Тони Азито (Reeves), Хилари Шепард (Shirley), Лесли Истербрук (Bobbie Sue), Майкл Боуэн (Scott)-Мировая премьера: 3 мая 1985-Описание: Два молодых и веселых парня попадают в роскошный отель на побережье, где стараются «оттянуться по полной программе». К сожалению, местный вор и гостиничный детектив все время мешают ребятам заниматься их любимым «видом спорта» — здоровым сексом.-Исходник видео: Private Resort 1985 1080p WEB-DL-iND-Огромная благодарность:
- собственная запись перевода с телеканала СТС в начале 2000-х годов через видеомагнитофон и оцифровка с видеокассеты.
- синхронизация перевода.-Данный перевод имеет небольшую вставку такого же перевода из трекера в самом начале и до 00:01:46.-На русский язык фильм озвучен телекомпанией Шестой Канал Санкт-Петербург по заказу СТС в 1999 году.
Текст читают Станислав Концевич, Михаил Черняк, Елена Шульман и Александра Кожевникова.-Рейтинг

MPAA: R - Лицам до 17 лет обязательно присутствие взрослого.-Качество видео: WEB-DLRip
Формат видео: AVI -> //SAMPLE//
Видео: XviD, 720x400 (16:9), 23.976 fps, 2232 kbps avg
Аудио:
1 - 48 khz, AC3 Dolby Digital, 2/0 (L,R) ch, ~192 kbps [СТС] VHSRip

MediaInfo

General
Complete name : D:\Торрент Файлы\Будущие Релизы на Трекере\1.35 - 1.46 и более гб\Частный Курорт (СТС).avi
Format : AVI
Format/Info : Audio Video Interleave
File size : 1.39 GiB
Duration : 1h 21mn
Overall bit rate : 2 433 Kbps
Writing application : VirtualDubMod 1.5.10.3 | www.virtualdub-fr.org || (build 2550/release)
Writing library : VirtualDubMod build 2550/release
Video
ID : 0
Format : MPEG-4 Visual
Format profile : Advanced Simple@L5
Format settings, BVOP : 1
Format settings, QPel : No
Format settings, GMC : No warppoints
Format settings, Matrix : Custom
Codec ID : XVID
Codec ID/Hint : XviD
Duration : 1h 21mn
Bit rate : 2 232 Kbps
Width : 720 pixels
Height : 400 pixels
Display aspect ratio : 16:9
Frame rate : 23.976 fps
Color space : YUV
Chroma subsampling : 4:2:0
Bit depth : 8 bits
Scan type : Progressive
Compression mode : Lossy
Bits/(Pixel*Frame) : 0.323
Stream size : 1.28 GiB (92%)
Writing library : XviD 1.2.1 (UTC 2008-12-04)
Audio
ID : 1
Format : AC-3
Format/Info : Audio Coding 3
Mode extension : CM (complete main)
Format settings, Endianness : Big
Codec ID : 2000
Duration : 1h 21mn
Bit rate mode : Constant
Bit rate : 192 Kbps
Channel(s) : 2 channels
Channel positions : Front: L R
Sampling rate : 48.0 KHz
Compression mode : Lossy
Stream size : 112 MiB (8%)
Alignment : Split accross interleaves
Interleave, duration : 42 ms (1.00 video frame)
Interleave, preload duratio : 500 ms

Скриншот c названием фильма

Скриншоты

To download the content you need:
1. Download and install torrent client [for Windows] or for mobile system
2. Click on [Download]
Attention.
If the test YOU are NOT a ROBOT - does not work, then You are using an outdated browser.
Install the current browser and click on [Download]

Do not work with Yandex browser. Uploading files to them is erroneous.
Security: torrent client is allowed by Kaspersky.

[en.asmlocator.ru].t4180.torrent 
Torrent: Registered [ 2015-11-30 05:45 ] · F9EE7AB1195F179BE39448E0A5424EF26078CCCC

Download .torrent

Download

14 KB

Status: checked
Completed: 0 times
Size: 1.39 GB
terms.php
[Profile] [PM]
Display posts:    
Reply to topic

Current time is: 31-Mar 18:40

All times are UTC ± 0



You cannot post new topics in this forum
You cannot reply to topics in this forum
You cannot edit your posts in this forum
You cannot delete your posts in this forum
You cannot vote in polls in this forum
You cannot attach files in this forum
You can download files in this forum
Верим фактам, а не вранью Путина! Факт, что Правительство ведёт Россию к истреблению.
Так как численность населения падает, даже не смотря на приток эмигрантов!
Русская нация вымирает и вырождается, смешиваясь с эмигрантами!
Факт, что военных и граждан предприятий заставляют голосовать за партию Единая Россия и Путина
ПОД СТРАХОМ УВОЛЬНЕНИЯ!
Нам не нужно Правительство, блокирующее личную жизнь, интернет, нарушающее сохранность данных.
Все эти действия финансируются за счёт народа!