Ровно в три / Ровно в 3 часа / Three O\'Clock High (Фил Джоану / Phil Joanou) [1987, США, Комедия, DVDRip] AVO (Юрий Живов) + Original Eng

Reply to topic
DL-List and Torrent activity
Size:  1.42 GB   |    Registered:  4 years 7 months   |    Completed:  0 times

Seeder not seen: 2 years 6 months

 
   
 
 
Author Message

star21 ®

Gender: Female

Longevity: 4 years 8 months

Posts: 551945

Location: Екатеринбург

Post 30-Nov-2015 05:52

[Quote]

Ровно в три / Ровно в 3 часа / Three O'Clock High
Страна: США
Жанр: Комедия
Год выпуска: 1987
Продолжительность: 01:25:54
Перевод: Авторский (одноголосый закадровый) Юрий Живов
Cубтитры: нет
Оригинальная аудиодорожка: английский
Режиссер: Фил Джоану / Phil Joanou
В ролях: Кэйси Семашко, Энн Райан, Ричард Тайсон, Стэйси Глик, Джонатан Уайз, Джеффри Тэмбор, Филип Бейкер Холл, Джон П. Райан, Лиза Морроу, Скотт Тайлер
Описание: Старшеклассник Джерри Митчел опаздывает на занятия. Он еще не знает, что в школе появился опасный новичок — злобный и агрессивный Бадди Ревелл, громила и хулиган. Знакомство мальчишек заканчивается не самым приятным образом: Бадди вызывает Джерри на поединок, который должен состояться ровно в три часа.
Джерри в панике: драка может закончиться для него весьма печально, ведь соперник на голову выше и значительно сильнее. И, хотя стрелки часов неумолимо приближают роковой час школьной дуэли, Джерри не теряет надежды найти способ избежать конфронтации…
Доп. информация: Дорожка с Ю. Живовым синхронизирована, ремастерирована, преобразована в СТЕРЕО и наложена ale_x2008 при помощи Adobe Audition, iZotope RX2, Sony Vegas и VirtualDubMod.
За оцифрованную с VHS дорожку благодарим - alenavova

Релиз
Сэмпл: https://yadi.sk/i/18MBOcLsjcgkm
Качество видео: DVDRip
Формат видео: AVI
Видео: XviD build 65, 704x384 (1.83:1), 25.00 fps, 1968 kbps avg, 0.29 bit/pixel
Аудио: AC3 Dolby Digital, 48000Hz, 2/0 (L,R) ch (stereo), 192.00 kbps avg
Аудио 2: AC3 Dolby Digital, 48000Hz, 2/0 (L,R) ch, 192.00 kbps avg

MediaInfo

Ровно в 3 часа - Three O'Clock High [by ale_x2008].avi
Format : AVI
Format/Info : Audio Video Interleave
File size : 1.42 GiB
Duration : 1h 25mn
Overall bit rate : 2 367 Kbps
Movie name : Ровно в 3 часа - Three O'Clock High [by ale_x2008]
Director : by ale_x2008
Writing application : VirtualDubMod 1.5.10.2 (build 2540/release)
Copyright : Edich2
Comment : RuTracker.org
Video
ID : 0
Format : MPEG-4 Visual
Format profile : Advanced Simple@L5
Format settings, BVOP : 2
Format settings, QPel : No
Format settings, GMC : No warppoints
Format settings, Matrix : Custom
Codec ID : XVID
Codec ID/Hint : XviD
Duration : 1h 25mn
Bit rate : 1 969 Kbps
Width : 704 pixels
Height : 384 pixels
Display aspect ratio : 1.85:1
Frame rate : 25.000 fps
Color space : YUV
Chroma subsampling : 4:2:0
Bit depth : 8 bits
Scan type : Progressive
Compression mode : Lossy
Bits/(Pixel*Frame) : 0.291
Stream size : 1.18 GiB (83%)
Writing library : XviD 65
Audio #1
ID : 1
Format : AC-3
Format/Info : Audio Coding 3
Mode extension : CM (complete main)
Format settings, Endianness : Big
Codec ID : 2000
Duration : 1h 25mn
Bit rate mode : Constant
Bit rate : 192 Kbps
Channel(s) : 2 channels
Channel positions : Front: L R
Sampling rate : 48.0 KHz
Bit depth : 16 bits
Compression mode : Lossy
Stream size : 118 MiB (8%)
Alignment : Split accross interleaves
Interleave, duration : 40 ms (1.00 video frame)
Interleave, preload duration : 500 ms
Audio #2
ID : 2
Format : AC-3
Format/Info : Audio Coding 3
Mode extension : CM (complete main)
Format settings, Endianness : Big
Codec ID : 2000
Duration : 1h 25mn
Bit rate mode : Constant
Bit rate : 192 Kbps
Channel(s) : 2 channels
Channel positions : Front: L R
Sampling rate : 48.0 KHz
Bit depth : 16 bits
Compression mode : Lossy
Stream size : 118 MiB (8%)
Alignment : Split accross interleaves
Interleave, duration : 40 ms (1.00 video frame)
Interleave, preload duration : 500 ms

Скриншоты



To download the content you need:
1. Download and install torrent client [for Windows] or for mobile system
2. Click on [Download]
Attention.
If the test YOU are NOT a ROBOT - does not work, then You are using an outdated browser.
Install the current browser and click on [Download]

Do not work with Yandex browser. Uploading files to them is erroneous.
Security: torrent client is allowed by Kaspersky.

[en.asmlocator.ru].t4177.torrent 
Torrent: Registered [ 2015-11-30 05:45 ] · D903B48ED99DE642AE0715F1532FE51BBB51FF31

Download .torrent

Download

15 KB

Status: checked
Completed: 0 times
Size: 1.42 GB
terms.php
[Profile] [PM]
Display posts:    
Reply to topic

Current time is: 14-Jul 19:47

All times are UTC ± 0



You cannot post new topics in this forum
You cannot reply to topics in this forum
You cannot edit your posts in this forum
You cannot delete your posts in this forum
You cannot vote in polls in this forum
You cannot attach files in this forum
You can download files in this forum