Город слизи / Slime City (Грег Ламберсон / Greg Lamberson) [1988, США, ужасы, DVDRip] VO (Horror Maker)

Reply to topic
DL-List and Torrent activity
Size:  1.37 GB   |    Registered:  4 years 7 months   |    Completed:  0 times

Seeder not seen: Never

 
   
 
 
Author Message

star21 ®

Gender: Female

Longevity: 4 years 8 months

Posts: 551945

Location: Екатеринбург

Post 30-Nov-2015 05:52

[Quote]

Город слизи / Slime City
Страна: США
Жанр: ужасы
Год выпуска: 1988
Продолжительность: 01:21:19
Перевод: Одноголосый закадровый Horror Maker
Cубтитры: нет
Режиссер: Грег Ламберсон / Greg Lamberson
В ролях: Роберт С. Сабин, Т.Дж. Меррик, Дэннис Эмбри, Дик Бил, Банни Ливайн, Мэрлин Оран, Т. Клэй Дикинсон, Терри Спайви
Описание: Опробовав зелья, герой картины начинает исходить противной желто-зеленой слизью, и только убийства людей способны на время вернуть ему прежний облик.
Сэмпл: https://yadi.sk/i/0R3VyMkijcqVA
За синхрон дорожки спасибо xelon2006
Качество видео: DVDRip [Slime City (1988) Naked Fear (1999) [Full DVD9] [DVD-R] by CG]
Формат видео: AVI
Видео: 720x400 (1.80:1), 23.976 fps, XviD build 50 ~2204 kbps avg, 0.32 bit/pixel
Аудио: 48 kHz, AC3 Dolby Digital, 2/0 (L,R) ch, ~192 kbps

MediaInfo

Город слизи - Slime City [by Edich2].avi
Format : AVI
Format/Info : Audio Video Interleave
File size : 1.37 GiB
Duration : 1h 21mn
Overall bit rate : 2 406 Kbps
Movie name : Город слизи - Slime City [by Edich2]
Director : by Edich2
Writing application : VirtualDubMod 1.5.10.2 (build 2540/release)
Comment : RuTracker.org
Video
ID : 0
Format : MPEG-4 Visual
Format profile : Advanced Simple@L5
Format settings, BVOP : 1
Format settings, QPel : No
Format settings, GMC : No warppoints
Format settings, Matrix : Default (MPEG)
Codec ID : XVID
Codec ID/Hint : XviD
Duration : 1h 21mn
Bit rate : 2 205 Kbps
Width : 720 pixels
Height : 400 pixels
Display aspect ratio : 16:9
Frame rate : 23.976 fps
Color space : YUV
Chroma subsampling : 4:2:0
Bit depth : 8 bits
Scan type : Progressive
Compression mode : Lossy
Bits/(Pixel*Frame) : 0.319
Stream size : 1.25 GiB (92%)
Writing library : XviD 1.2.1 (UTC 2008-12-04)
Audio
ID : 1
Format : AC-3
Format/Info : Audio Coding 3
Mode extension : CM (complete main)
Format settings, Endianness : Big
Codec ID : 2000
Duration : 1h 21mn
Bit rate mode : Constant
Bit rate : 192 Kbps
Channel(s) : 2 channels
Channel positions : Front: L R
Sampling rate : 48.0 KHz
Bit depth : 16 bits
Compression mode : Lossy
Stream size : 112 MiB (8%)
Alignment : Split accross interleaves
Interleave, duration : 42 ms (1.00 video frame)
Interleave, preload duration : 500 ms

Скриншоты


To download the content you need:
1. Download and install torrent client [for Windows] or for mobile system
2. Click on [Download]
Attention.
If the test YOU are NOT a ROBOT - does not work, then You are using an outdated browser.
Install the current browser and click on [Download]

Do not work with Yandex browser. Uploading files to them is erroneous.
Security: torrent client is allowed by Kaspersky.

[en.asmlocator.ru].t4176.torrent 
Torrent: Registered [ 2015-11-30 05:45 ] · AA334412DED2BF1DBFF8163E10791C4D5A0FEA36

Download .torrent

Download

14 KB

Status: checked
Completed: 0 times
Size: 1.37 GB
terms.php
[Profile] [PM]
Display posts:    
Reply to topic

Current time is: 13-Jul 21:52

All times are UTC ± 0



You cannot post new topics in this forum
You cannot reply to topics in this forum
You cannot edit your posts in this forum
You cannot delete your posts in this forum
You cannot vote in polls in this forum
You cannot attach files in this forum
You can download files in this forum