Мотель "Игра" / Мотель для флирта / Play Motel (Марио Гараццио / Mario Gariazzo) [1979, Италия, триллер, TVRip] [Сокращенная версия] VO

Reply to topic
DL-List and Torrent activity
Size:  1.36 GB   |    Registered:  4 years 7 months   |    Completed:  1 time

Seeder not seen: 8 months 23 days

 
   
 
 
Author Message

star21 ®

Gender: Female

Longevity: 4 years 8 months

Posts: 551945

Location: Екатеринбург

Post 30-Nov-2015 05:52

[Quote]

Мотель "Игра" / Мотель для флирта / Play Motel / Сокращенная версия Страна: Италия
Жанр: триллер
Год выпуска: 1979
Продолжительность: 01:28:25
Перевод: Одноголосый закадровый
Cубтитры: нет
Оригинальная аудиодорожка: нет
Режиссер: Марио Гараццио / Mario Gariazzo
В ролях: Энтони Штеффен, Рэй Лавлок, Анна Мария Риццоли, Марио Кутини, Антонелла Антинори, Патриция Бен
Описание: Полупрозрачное зеркало в одном из номеров мотеля "Игра" – путь к получению компрометирующих фотографий богатеньких извращенцев, с целью дальнейшего шантажа сластолюбцев. Жена издателя Квадрифолио, случайно обнаружив у своего мужа пикантные снимки, которыми его шантажировали неизвестные, отправилась в мотель на разведку и была там убита. Злоумышленники спрятали ее труп в багажнике автомобиля ничего не подозревающей супружеской пары. Когда тело было обнаружено, полицейский комиссар не стал обвинять актера средней руки и его благоверную в убийстве, а предложил им поучаствовать в расследовании: сначала в качестве не вызывающих подозрения наблюдателей, а потом и подсадных уток.
Доп. информация: В связи с тем, что полная версия данного фильма содержит сцены, не предназначенные для раздачи на нашем трекере, здесь выложена сокращенная тв-версия.
Звуковая дорожка взята с Феникс-клуба, из раздачи Шам. К сожалению, там не был указан переводчик и озвучивающий. Уважаемые специалисты, подскажите пожалуйста, причастных к появлению перевода этого фильма. Обязательно отмечу всех в благодарностях.
Сэмпл: http://multi-up.com/1070313
Качество видео: TVRip
Формат видео: AVI
Видео: 640x384 (1.67:1), 25 fps, XviD build 47 ~2006 kbps avg, 0.33 bit/pixel
Аудио: 48 kHz, AC3 Dolby Digital, 2/0 (L,R) ch, ~192 kbps
18+

MediaInfo

Format : AVI
Format/Info : Audio Video Interleave
File size : 1.36 GiB
Duration : 1h 28mn
Overall bit rate : 2 208 Kbps
Writing application : VirtualDubMod 1.5.10.2 (build 2540/release)
Writing library : VirtualDubMod build 2540/release
Video
ID : 0
Format : MPEG-4 Visual
Format profile : Advanced Simple@L5
Format settings, BVOP : 1
Format settings, QPel : No
Format settings, GMC : No warppoints
Format settings, Matrix : Default (MPEG)
Codec ID : XVID
Codec ID/Hint : XviD
Duration : 1h 28mn
Bit rate : 2 007 Kbps
Width : 640 pixels
Height : 384 pixels
Display aspect ratio : 1.667
Frame rate : 25.000 fps
Color space : YUV
Chroma subsampling : 4:2:0
Bit depth : 8 bits
Scan type : Progressive
Compression mode : Lossy
Bits/(Pixel*Frame) : 0.327
Stream size : 1.24 GiB (91%)
Writing library : XviD 1.2.0.dev47 (UTC 2006-11-01)
Audio
ID : 1
Format : AC-3
Format/Info : Audio Coding 3
Mode extension : CM (complete main)
Format settings, Endianness : Big
Codec ID : 2000
Duration : 1h 28mn
Bit rate mode : Constant
Bit rate : 192 Kbps
Channel(s) : 2 channels
Channel positions : Front: L R
Sampling rate : 48.0 KHz
Bit depth : 16 bits
Compression mode : Lossy
Stream size : 121 MiB (9%)
Alignment : Split accross interleaves
Interleave, duration : 40 ms (1.00 video frame)
Interleave, preload duration : 500 ms

Скриншот c названием фильма

Огромное спасибо Шам за звуковую дорожку и punk and destroy за синхронизацию звука!

To download the content you need:
1. Download and install torrent client [for Windows] or for mobile system
2. Click on [Download]
Attention.
If the test YOU are NOT a ROBOT - does not work, then You are using an outdated browser.
Install the current browser and click on [Download]

Do not work with Yandex browser. Uploading files to them is erroneous.
Security: torrent client is allowed by Kaspersky.

[en.asmlocator.ru].t4175.torrent 
Torrent: Registered [ 2015-11-30 05:45 ] · 6D488F17933D57D5EF759354BCC98F30972F308E

Download .torrent

Download

14 KB

Status: checked
Completed: 1 times
Size: 1.36 GB
terms.php
[Profile] [PM]
Display posts:    
Reply to topic

Current time is: 12-Jul 14:58

All times are UTC ± 0



You cannot post new topics in this forum
You cannot reply to topics in this forum
You cannot edit your posts in this forum
You cannot delete your posts in this forum
You cannot vote in polls in this forum
You cannot attach files in this forum
You can download files in this forum
Верим фактам, а не вранью Путина! Факт, что Правительство ведёт Россию к истреблению.
Так как численность населения падает, даже не смотря на приток эмигрантов!
Русская нация вымирает и вырождается, смешиваясь с эмигрантами!
Факт, что военных и граждан предприятий заставляют голосовать за партию Единая Россия и Путина
ПОД СТРАХОМ УВОЛЬНЕНИЯ!
Нам не нужно Правительство, блокирующее личную жизнь, интернет, нарушающее сохранность данных.
Все эти действия финансируются за счёт народа!