Выжженная земля / Brent Jord (Кнут Андерсен / Knut Andersen) [1969, Норвегия, драма, военный, TeleSynch] Dub (Мосфильм)

Reply to topic
DL-List and Torrent activity
Size:  910 MB   |    Registered:  4 years 7 months   |    Completed:  0 times

Seeder not seen: 2 years 1 month

 
   
 
 
Author Message

star21 ®

Gender: Female

Longevity: 4 years 8 months

Posts: 551945

Location: Екатеринбург

Post 30-Nov-2015 05:52

[Quote]

Выжженная земля / Brent Jord
Страна: Норвегия
Жанр: драма, военный
Год выпуска: 1969
Продолжительность: 01:34:56
Перевод: Профессиональный (дублированный) Студия "Киноактёр" (Мосфильм)
Cубтитры: нет
Режиссер: Кнут Андерсен/Knut Andersen
В ролях: Рольф Сёдер, Анна Лиза Тангстад, Бонне Гаугин, Кёре Таннвик, Сольфрид Хейер, Арне Бёгер Неес, Райнер Врённеке, Брент Эрик Ларссен
Описание: Октябрь 1944 г, Северная Норвегия, Восточный Финнмарк. Советские войска, по согласованию с правительством Норвегии в изгнании, пересекли границу королевства и развивают наступление. Немецкие войска, понимая, что поражение для них неминуемо, отступают к западу и готовятся к эвакуации. По плану немцев, всё инфраструктура на пути наступления Советских войск должна быть уничтожена, а население вывезено. Тяжело приходится тем жителям, которые осмеливаются даже на пассивное сопротивление.
Доп. информация:
Это была насильственная эвакуация около 60000 чел с территории, даже большей чем Дания. Сожжены 11000 домов, 116 школ, 21 больниц. Мосты и электростанции разрушены. Во время операции немцев в провинциях Финнмарк и Северный Трумс была применена тактика выжженной земли. За собой они хотели оставить пустыню, чтобы замедлить приближение Советской Армии с востока. Когда в деревнях появлялись немецкие эвакуационные команды, то многие жители прятались в горах. Спуститься в свои деревни означало смертельную опасность. После ухода немцев население вернулась туда, где стояли их дома. Тяжело было выдержать то, что они увидели, тем более - надвигалась зима. В этих условиях жители Северной Норвегии показали настоящее мужество и им удалось уже на Рождество окончательно покинуть пещеры и землянки.
После освобождения от немецко-фашистских захватчиков района Петсамо стало известно, что в поселке Лиинахамари проводилась подготовка так называемых брандкоманд — групп по тотальному опустошению местности. Подобного рода группы были размещены на всем пространстве от Петсамо до Тромсе. Кроме того, на территории Финнмарка действовали подвижные команды такого же назначения. Их могли перебрасывать из одного района в другой, в зависимости от того, где их «работа», с точки зрения германского командования, считалась наиболее целесообразной. Для каждого города, рыбацкого поселка или другого населенного пункта Финнмарка был заранее разработан план разрушения. Все крупные дороги, мосты и более или менее значительные здания заранее минировались
Сэмпл: http://sendfile.su/1163383
Качество видео: TeleSynch
Формат видео: AVI
Видео: MPEG-4 Visual, 720 х 576, 4:3, 25 кадров/сек, 1200 кбит/сек
Аудио: MPEG Audio, 44,1 КГц, 128 Кбит/сек, 2 канала

MediaInfo

Формат : AVI
Формат/Информация : Audio Video Interleave
Размер файла : 910 Мбайт
Продолжительность : 1 ч. 34 м.
Общий поток : 1340 Кбит/сек
Программа кодирования : Lavf54.59.106
Видео
Идентификатор : 0
Формат : MPEG-4 Visual
Профиль формата : Simple@L1
Параметр BVOP формата : Нет
Параметр QPel формата : Нет
Параметр GMC формата : Без точки перехода
Параметр матрицы формата : Default (H.263)
Идентификатор кодека : FMP4
Продолжительность : 1 ч. 34 м.
Битрейт : 1200 Кбит/сек
Ширина : 720 пикселей
Высота : 576 пикселей
Соотношение сторон : 4:3
Частота кадров : 25,000 кадров/сек
Стандарт вещания : PAL
Цветовое пространство : YUV
Субдискретизация насыщенности : 4:2:0
Битовая глубина : 8 бит
Тип развёртки : Прогрессивная
Метод сжатия : С потерями
Бит/(Пиксели*Кадры) : 0.116
Размер потока : 815 Мбайт (90%)
Библиотека кодирования : Lavc54.86.100
Аудио
Идентификатор : 1
Формат : MPEG Audio
Версия формата : Version 1
Профиль формата : Layer 3
Режим : Joint stereo
Расширение режима : MS Stereo
Идентификатор кодека : 55
Идентификатор кодека/Подсказка : MP3
Продолжительность : 1 ч. 34 м.
Вид битрейта : Постоянный
Битрейт : 128 Кбит/сек
Каналы : 2 канала
Частота : 44,1 КГц
Метод сжатия : С потерями
Размер потока : 86,9 Мбайт (10%)
Выравнивание : Соединение по промежуткам
Продолжительность промежутка : 26 мс. (0,65 видеокадр)
Время предзагрузки промежутка : 26 мс.

Скриншот c названием фильма

Скриншоты



To download the content you need:
1. Download and install torrent client [for Windows] or for mobile system
2. Click on [Download]
Attention.
If the test YOU are NOT a ROBOT - does not work, then You are using an outdated browser.
Install the current browser and click on [Download]

Do not work with Yandex browser. Uploading files to them is erroneous.
Security: torrent client is allowed by Kaspersky.

[en.asmlocator.ru].t4172.torrent 
Torrent: Registered [ 2015-11-30 05:45 ] · EADF03FF765CFFF629D2BBC655FEAAFE7611A4FC

Download .torrent

Download

18 KB

Status: checked
Completed: 0 times
Size: 910 MB
terms.php
[Profile] [PM]
Display posts:    
Reply to topic

Current time is: 13-Jul 02:26

All times are UTC ± 0



You cannot post new topics in this forum
You cannot reply to topics in this forum
You cannot edit your posts in this forum
You cannot delete your posts in this forum
You cannot vote in polls in this forum
You cannot attach files in this forum
You can download files in this forum
Верим фактам, а не вранью Путина! Факт, что Правительство ведёт Россию к истреблению.
Так как численность населения падает, даже не смотря на приток эмигрантов!
Русская нация вымирает и вырождается, смешиваясь с эмигрантами!
Факт, что военных и граждан предприятий заставляют голосовать за партию Единая Россия и Путина
ПОД СТРАХОМ УВОЛЬНЕНИЯ!
Нам не нужно Правительство, блокирующее личную жизнь, интернет, нарушающее сохранность данных.
Все эти действия финансируются за счёт народа!