Женихи и невесты / Дамы и кавалеры / Frajeri a frajerky (Людовит Филан / Ludovit Filan / Ľudovít Filan) [1979, Чехословакия, детский, TVRip] VO + Sub Rus + Original Slo

Reply to topic
DL-List and Torrent activity
Size:  667 MB   |    Registered:  4 years 7 months   |    Completed:  0 times

Seeder not seen: 8 months 24 days

 
   
 
 
Author Message

star21 ®

Gender: Female

Longevity: 4 years 8 months

Posts: 551945

Location: Екатеринбург

Post 30-Nov-2015 05:52

[Quote]

Женихи и невесты / Дамы и кавалеры / Frajeri a frajerky
Страна: Чехословакия
Жанр: детский
Год выпуска: 1979
Продолжительность: 01:03:31
Перевод: Одноголосый закадровый
Cубтитры: русские
Оригинальная аудиодорожка: словацкий
Режиссер: Людовит Филан / Ludovit Filan / Ľudovít Filan
В ролях: Томаш Долинек / Tomas Dolinek / Tomáš Dolínek, Рихард Станке / Richard Stanke, Robert Cisár, Michal Suroviak, Pavlína Mourková, Zuzana Pravňanská, Andrea Novomeská, Jozef Adamovič, Štefan Halás, Miloš Kirschner, Vlado Kostovič, František Desset, Július Bulla, Helena Húsková, Jarmila Karasová, Lucia Bernusová
Описание: О каникулах тринадцатилетнего подростка, который учится преодолевать свои страхи и быть самостоятельным. О лете его первой любви.
Сэмпл: http://multi-up.com/1070543
Качество видео: TVRip
Формат видео: AVI
Видео: 720x544 (1.32:1), 25 fps, XviD build 64 ~1197 kbps avg, 0.12 bit/pixel
Аудио 1: 48 kHz, MPEG Layer 3, 2 ch, ~128.00 kbps avg(Русский)
Аудио 2: 48 kHz, MPEG Layer 3, 2 ch, ~128.00 kbps avg(Словацкий)
Формат субтитров: softsub (SRT)
Доп. информация о субтитрах: русские внешние (Леший Иван)

MediaInfo

Общее
Полное имя : F:\С моей озвучкой\Женихи и невесты\Frajeri a frajerky (1979).avi
Формат : AVI
Формат/Информация : Audio Video Interleave
Размер файла : 667 Мбайт
Продолжительность : 1 ч. 3 м.
Общий поток : 1469 Кбит/сек
Программа кодирования : VirtualDubModRus 1.5.10.2 (build 2542/release)
Библиотека кодирования : VirtualDubMod build 2542/release
Видео
Идентификатор : 0
Формат : MPEG-4 Visual
Профиль формата : Advanced Simple@L5
Параметр BVOP формата : 1
Параметр QPel формата : Нет
Параметр GMC формата : Без точки перехода
Параметр матрицы формата : Выборочная
Идентификатор кодека : XVID
Идентификатор кодека/Подсказка : XviD
Продолжительность : 1 ч. 3 м.
Битрейт : 1198 Кбит/сек
Ширина : 720 пикселей
Высота : 544 пикселя
Соотношение сторон : 4:3
Частота кадров : 25,000 кадров/сек
Цветовое пространство : YUV
Субдискретизация насыщенности : 4:2:0
Битовая глубина : 8 бит
Тип развёртки : Прогрессивная
Метод сжатия : С потерями
Бит/(Пиксели*Кадры) : 0.122
Размер потока : 544 Мбайт (82%)
Библиотека кодирования : XviD 64
Аудио #1
Идентификатор : 1
Формат : MPEG Audio
Версия формата : Version 1
Профиль формата : Layer 3
Режим : Joint stereo
Расширение режима : MS Stereo
Идентификатор кодека : 55
Идентификатор кодека/Подсказка : MP3
Продолжительность : 1 ч. 3 м.
Вид битрейта : Постоянный
Битрейт : 128 Кбит/сек
Каналы : 2 канала
Частота : 48,0 КГц
Метод сжатия : С потерями
Размер потока : 58,1 Мбайт (9%)
Выравнивание : Соединение по промежуткам
Продолжительность промежутка : 40 мс. (1,00 видеокадр)
Время предзагрузки промежутка : 504 мс.
Библиотека кодирования : LAME3.96
Аудио #2
Идентификатор : 2
Формат : MPEG Audio
Версия формата : Version 1
Профиль формата : Layer 3
Режим : Joint stereo
Расширение режима : MS Stereo
Идентификатор кодека : 55
Идентификатор кодека/Подсказка : MP3
Продолжительность : 1 ч. 3 м.
Вид битрейта : Постоянный
Битрейт : 128 Кбит/сек
Каналы : 2 канала
Частота : 48,0 КГц
Метод сжатия : С потерями
Размер потока : 58,1 Мбайт (9%)
Выравнивание : Соединение по промежуткам
Продолжительность промежутка : 40 мс. (1,00 видеокадр)
Время предзагрузки промежутка : 504 мс.
Библиотека кодирования : LAME3.98r
Настройки программы : -m j -V 4 -q 2 -lowpass 17 -b 128

Скриншоты

To download the content you need:
1. Download and install torrent client [for Windows] or for mobile system
2. Click on [Download]
Attention.
If the test YOU are NOT a ROBOT - does not work, then You are using an outdated browser.
Install the current browser and click on [Download]

Do not work with Yandex browser. Uploading files to them is erroneous.
Security: torrent client is allowed by Kaspersky.

[en.asmlocator.ru].t4171.torrent 
Torrent: Registered [ 2015-11-30 05:45 ] · C4F568360120377D4E6C114CBA85706D03AEF227

Download .torrent

Download

14 KB

Status: checked
Completed: 0 times
Size: 667 MB
terms.php
[Profile] [PM]
Display posts:    
Reply to topic

Current time is: 13-Jul 19:43

All times are UTC ± 0



You cannot post new topics in this forum
You cannot reply to topics in this forum
You cannot edit your posts in this forum
You cannot delete your posts in this forum
You cannot vote in polls in this forum
You cannot attach files in this forum
You can download files in this forum