Один дома / Home Alone (Крис Коламбус / Chris Columbus) [1990, США, Комедия, BDRip-AVC] [REMASTERED] Dub + MVO (НТВ / ОРТ) + MVO (Премьер Видео Фильм) + AVO (Михалёв) + AVO (Дохалов) + Subs (Rus, Eng)

Reply to topic
DL-List and Torrent activity
Size:  3.11 GB   |    Registered:  4 years 4 months   |    Completed:  0 times

Seeder not seen: 3 years 2 months

 
   
 
 
Author Message

star21 ®

Gender: Female

Longevity: 4 years 4 months

Posts: 551945

Location: Екатеринбург

Post 30-Nov-2015 05:52

[Quote]

Один дома / Home Alone- Год выпуска: 1990
Выпущено: США / 20th Century Fox Film Corporation
Жанр: комедия
Продолжительность: 01:42:53
Перевод (1): Профессиональный (многоголосый закадровый) НТВ / ОРТ
Перевод (2): Профессиональный (многоголосый закадровый) Премьер Видео Фильм
Перевод (3): Профессиональный (полное дублирование) к/с им. А. Довженко
Перевод (4): Авторский (одноголосый закадровый) Алексей Михалёв (ранний)
Перевод (5): Авторский (одноголосый закадровый) Вартан Дохалов
Оригинальная аудиодорожка: Английская
Cубтитры: Русские (2 вида), Английские (полные, SDH)
Навигация по главам: Есть (24 главы)-Режиссер:
Крис Коламбус / Chris Columbus-В ролях:
Маколей Калкин, Джо Пеши, Дэниел Стерн, Джон Хёрд, Кэтрин О’Хара, Робертс Блоссом, Анджела Геталс, Девин Рэтрей, Джерри Бэммен, Хиллари Вульф, Джон Кэнди, Лар-Описание:
Американское семейство отправляется из Чикаго в Европу, но в спешке сборов бестолковые родители забывают дома... одного из своих детей. Юное создание, однако, не теряется и демонстрирует чудеса изобретательности. И когда в дом залезают грабители, им приходится не раз пожалеть о встрече с милым крошкой.-Релиз групп | | [imdb]http://www.imdb.com/title/tt0099785[/imdb] | КиноПоиск | Сэмпл |-Качество: BDRip [Home.Alone.1990.REMASTERED.1080p.BluRay.AVC.DTS-HD.MA.5.1-UltraHD]
Формат: MKV
Видео: 1008x544 (1.85:1), 23.976 fps, x264 ~2336 kbps avg, 0.178 bit/pixel
Аудио #1: 48 kHz, AC3 Dolby Digital, 3/2 (L,C,R,l,r) + LFE ch, ~448.00 kbps avg (MVO) НТВ / ОРТ
Аудио #2: 48 kHz, AC3 Dolby Digital, 3/2 (L,C,R,l,r) + LFE ch, ~448.00 kbps avg (MVO) Премьер Видео Фильм
Аудио #3: 48 kHz, AC3 Dolby Digital, 3/2 (L,C,R,l,r) + LFE ch, ~448.00 kbps avg (ENG)
Аудио #4: 48 kHz, AC3 Dolby Digital, 2/0 (L,R) ch, ~192.00 kbps avg (DUB) к/с им. А. Довженко отдельно
Аудио #5: 48 kHz, AC3 Dolby Digital, 2/0 (L,R) ch, ~192.00 kbps avg (AVO) Алексей Михалёв (ранний) отдельно
Аудио #6: 48 kHz, AC3 Dolby Digital, 2/0 (L,R) ch, ~192.00 kbps avg (AVO) Вартан Дохалов отдельно-

Скриншоты

MediaInfo

General
Complete name                            : D:\Odin_doma_1990_BDRip-AVC_[REMASTERED]_by_Dalemake.mkv
Format                                   : Matroska
Format version                           : Version 2
File size                                : 2.70 GiB
Duration                                 : 1h 42mn
Overall bit rate                         : 3 754 Kbps
Encoded date                             : UTC 2015-10-11 18:11:51
Writing application                      : mkvmerge v7.8.0 ('River Man') 32bit built on Apr  3 2015 12:11:22
Writing library                          : libebml v1.3.1 + libmatroska v1.4.2
Video
ID                                       : 1
Format                                   : AVC
Format/Info                              : Advanced Video Codec
Format profile                           : High@L4.1
Format settings, CABAC                   : Yes
Format settings, ReFrames                : 11 frames
Codec ID                                 : V_MPEG4/ISO/AVC
Duration                                 : 1h 42mn
Bit rate                                 : 2 336 Kbps
Width                                    : 1 008 pixels
Height                                   : 544 pixels
Display aspect ratio                     : 1.85:1
Frame rate mode                          : Constant
Frame rate                               : 23.976 fps
Color space                              : YUV
Chroma subsampling                       : 4:2:0
Bit depth                                : 8 bits
Scan type                                : Progressive
Bits/(Pixel*Frame)                       : 0.178
Stream size                              : 1.68 GiB (62%)
Writing library                          : x264 core 146 r2538 121396c
Encoding settings                        : cabac=1 / ref=11 / deblock=1:-1:-1 / analyse=0x3:0x113 / me=umh / subme=11 / psy=1 / psy_rd=1.00:0.00 / mixed_ref=1 / me_range=32 / chroma_me=1 / trellis=2 / 8x8dct=1 / cqm=0 / deadzone=21,11 / fast_pskip=1 / chroma_qp_offset=-2 / threads=6 / lookahead_threads=1 / sliced_threads=0 / nr=0 / decimate=0 / interlaced=0 / bluray_compat=0 / constrained_intra=0 / bframes=12 / b_pyramid=2 / b_adapt=2 / b_bias=0 / direct=3 / weightb=1 / open_gop=1 / weightp=2 / keyint=240 / keyint_min=23 / scenecut=40 / intra_refresh=0 / rc_lookahead=60 / rc=crf / mbtree=1 / crf=18.2 / qcomp=0.60 / qpmin=0 / qpmax=69 / qpstep=4 / vbv_maxrate=62500 / vbv_bufsize=50000 / crf_max=0.0 / nal_hrd=none / filler=0 / ip_ratio=1.40 / aq=1:0.80
Default                                  : Yes
Forced                                   : No
Audio #1
ID                                       : 2
Format                                   : AC-3
Format/Info                              : Audio Coding 3
Mode extension                           : CM (complete main)
Format settings, Endianness              : Big
Codec ID                                 : A_AC3
Duration                                 : 1h 42mn
Bit rate mode                            : Constant
Bit rate                                 : 448 Kbps
Channel(s)                               : 6 channels
Channel positions                        : Front: L C R, Side: L R, LFE
Sampling rate                            : 48.0 KHz
Bit depth                                : 16 bits
Compression mode                         : Lossy
Stream size                              : 330 MiB (12%)
Title                                    : NTV / ORT
Language                                 : Russian
Default                                  : Yes
Forced                                   : No
Audio #2
ID                                       : 3
Format                                   : AC-3
Format/Info                              : Audio Coding 3
Mode extension                           : CM (complete main)
Format settings, Endianness              : Big
Codec ID                                 : A_AC3
Duration                                 : 1h 42mn
Bit rate mode                            : Constant
Bit rate                                 : 448 Kbps
Channel(s)                               : 6 channels
Channel positions                        : Front: L C R, Side: L R, LFE
Sampling rate                            : 48.0 KHz
Bit depth                                : 16 bits
Compression mode                         : Lossy
Stream size                              : 330 MiB (12%)
Title                                    : Prem`er Video Film
Language                                 : Russian
Default                                  : No
Forced                                   : No
Audio #3
ID                                       : 4
Format                                   : AC-3
Format/Info                              : Audio Coding 3
Mode extension                           : CM (complete main)
Format settings, Endianness              : Big
Codec ID                                 : A_AC3
Duration                                 : 1h 42mn
Bit rate mode                            : Constant
Bit rate                                 : 448 Kbps
Channel(s)                               : 6 channels
Channel positions                        : Front: L C R, Side: L R, LFE
Sampling rate                            : 48.0 KHz
Bit depth                                : 16 bits
Compression mode                         : Lossy
Stream size                              : 330 MiB (12%)
Title                                    : Original
Language                                 : English
Default                                  : No
Forced                                   : No
Text #1
ID                                       : 5
Format                                   : UTF-8
Codec ID                                 : S_TEXT/UTF8
Codec ID/Info                            : UTF-8 Plain Text
Title                                    : Sub 1
Language                                 : Russian
Default                                  : Yes
Forced                                   : No
Text #2
ID                                       : 6
Format                                   : UTF-8
Codec ID                                 : S_TEXT/UTF8
Codec ID/Info                            : UTF-8 Plain Text
Title                                    : Sub 2
Language                                 : Russian
Default                                  : No
Forced                                   : No
Text #3
ID                                       : 7
Format                                   : UTF-8
Codec ID                                 : S_TEXT/UTF8
Codec ID/Info                            : UTF-8 Plain Text
Title                                    : Sub
Language                                 : English
Default                                  : No
Forced                                   : No
Menu
00:00:00.000                             : en:Chapter 00
00:03:47.060                             : en:Chapter 01
00:05:46.679                             : en:Chapter 02
00:08:49.278                             : en:Chapter 03
00:11:28.729                             : en:Chapter 04
00:13:43.239                             : en:Chapter 05
00:19:27.457                             : en:Chapter 06
00:25:08.173                             : en:Chapter 07
00:31:16.040                             : en:Chapter 08
00:35:56.654                             : en:Chapter 09
00:41:09.550                             : en:Chapter 10
00:51:22.662                             : en:Chapter 11
00:57:38.580                             : en:Chapter 12
01:03:27.637                             : en:Chapter 13
01:06:33.656                             : en:Chapter 14
01:13:43.836                             : en:Chapter 15
01:15:13.217                             : en:Chapter 16
01:19:27.053                             : en:Chapter 17
01:22:51.341                             : en:Chapter 18
01:26:00.071                             : en:Chapter 19
01:28:45.069                             : en:Chapter 20
01:33:32.231                             : en:Chapter 21
01:37:58.289                             : en:Chapter 22
01:39:06.065                             : en:Chapter 23

x264 log

x264 [info]: using SAR=1/1
x264 [info]: using cpu capabilities: MMX2 SSE2Fast SSSE3 SSE4.2 AVX
x264 [info]: profile High, level 4.1
x264 [info]: frame I:1249  Avg QP:15.83  size:106303
x264 [info]: frame P:27157 Avg QP:19.81  size: 30097
x264 [info]: frame B:119612 Avg QP:22.56  size:  7593
x264 [info]: consecutive B-frames:  1.2%  1.0%  3.3%  9.7% 13.4% 57.2%  6.9%  1.8%  1.6%  1.2%  1.0%  0.8%  0.9%
x264 [info]: mb I  I16..4:  5.6% 71.9% 22.5%
x264 [info]: mb P  I16..4:  0.4%  6.5%  0.9%  P16..4: 32.7% 37.9% 13.1%  0.0%  0.0%    skip: 8.6%
x264 [info]: mb B  I16..4:  0.0%  0.8%  0.1%  B16..8: 37.3% 15.8%  2.4%  direct: 4.2%  skip:39.5%  L0:47.0% L1:45.8% BI: 7.2%
x264 [info]: 8x8 transform intra:81.5% inter:60.4%
x264 [info]: direct mvs  spatial:99.8% temporal:0.2%
x264 [info]: coded y,uvDC,uvAC intra: 92.4% 81.4% 54.4% inter: 24.6% 18.7% 6.2%
x264 [info]: i16 v,h,dc,p: 31% 19%  5% 45%
x264 [info]: i8 v,h,dc,ddl,ddr,vr,hd,vl,hu:  9%  7%  5% 11% 16% 15% 14% 12% 12%
x264 [info]: i4 v,h,dc,ddl,ddr,vr,hd,vl,hu: 10%  8%  5%  9% 15% 15% 14% 12% 12%
x264 [info]: i8c dc,h,v,p: 39% 23% 19% 19%
x264 [info]: Weighted P-Frames: Y:3.9% UV:2.3%
x264 [info]: ref P L0: 41.1% 10.3% 20.5%  6.2%  6.7%  3.7%  4.3%  1.7%  2.2%  1.4%  1.9%  0.1%  0.0%
x264 [info]: ref B L0: 69.4% 13.2%  6.3%  3.5%  2.3%  2.1%  1.5%  1.0%  0.5%  0.3%
x264 [info]: ref B L1: 92.5%  7.5%
-

To download the content you need:
1. Download and install torrent client [for Windows] or for mobile system
2. Click on [Download]
Attention.
If the test YOU are NOT a ROBOT - does not work, then You are using an outdated browser.
Install the current browser and click on [Download]

Do not work with Yandex browser. Uploading files to them is erroneous.
Security: torrent client is allowed by Kaspersky.

[en.asmlocator.ru].t4168.torrent 
Torrent: Registered [ 2015-11-30 05:45 ] · 9757E3AE86F62F86280283150E89526FA6D466E6

Download .torrent

Download

16 KB

Status: checked
Completed: 0 times
Size: 3.11 GB
terms.php
[Profile] [PM]
Display posts:    
Reply to topic

Current time is: 03-Apr 04:03

All times are UTC ± 0



You cannot post new topics in this forum
You cannot reply to topics in this forum
You cannot edit your posts in this forum
You cannot delete your posts in this forum
You cannot vote in polls in this forum
You cannot attach files in this forum
You can download files in this forum
Верим фактам, а не вранью Путина! Факт, что Правительство ведёт Россию к истреблению.
Так как численность населения падает, даже не смотря на приток эмигрантов!
Русская нация вымирает и вырождается, смешиваясь с эмигрантами!
Факт, что военных и граждан предприятий заставляют голосовать за партию Единая Россия и Путина
ПОД СТРАХОМ УВОЛЬНЕНИЯ!
Нам не нужно Правительство, блокирующее личную жизнь, интернет, нарушающее сохранность данных.
Все эти действия финансируются за счёт народа!