Игра в убийство / Tag: The Assassination Game (Ник Касл / Nick Castle) [1982, США, боевик, триллер, VHSRip] VO

Reply to topic
DL-List and Torrent activity
Size:  756 MB   |    Registered:  4 years 7 months   |    Completed:  0 times

Seeder not seen: 4 years

 
   
 
 
Author Message

star21 ®

Gender: Female

Longevity: 4 years 8 months

Posts: 551945

Location: Екатеринбург

Post 30-Nov-2015 05:52

[Quote]

Игра в убийство / Tag: The Assassination Game
Страна: США
Жанр: боевик, триллер
Год выпуска: 1982
Продолжительность: 01:27:21
Перевод: Одноголосый закадровый [ПОМОГИТЕ ОПОЗНАТЬ]
Cубтитры: нет
Режиссер: Ник Касл / Nick Castle
В ролях: Роберт Кэрредин
Линда Хэмилтон
(Сара Коннор - Терминатор)
Кристин ДеБелл
Перри Лэнг
John Mengatti
Майкл Уинслоу
Фрейзер Смит
Брюс Эбботт
Описание: В университетском городке очень популярна игра, в которой студенты стреляют друг в друга пластиковыми пулями. Алекс Марш знакомится с Сюзан и влюбляется в нее. Но дело в том, что Сюзан тоже принимает участие в этой игре. Правда, в этом году игра может стать значительно более опасным развлечением, когда кое-кто заряжает пистолеты настоящими пулями…
Доп. информация: Благодарность:
Анна57 - за дорожку VO с VHS
xelon2006 - за синхрон дорожки.

Релиз
Сэмпл: https://yadi.sk/i/PhT4Ym3HjfnhS
Качество видео: VHSRip
Формат видео: AVI
Видео: 528x400 (1.32:1), 25 fps, XviD build 47 ~1007 kbps avg, 0.19 bit/pixel
Аудио: 48 kHz, AC3 Dolby Digital, 2/0 (L,R) ch, ~192 kbps

MediaInfo

Игра в убийство - Tag. The Assassination Game [by Edich2].avi
Format : AVI
Format/Info : Audio Video Interleave
File size : 756 MiB
Duration : 1h 27mn
Overall bit rate : 1 209 Kbps
Movie name : Игра в убийство - Tag. The Assassination Game [by Edich2]
Director : by Edich2
Writing application : VirtualDubMod 1.5.10.2 (build 2540/release)
Comment : RuTracker.org
Video
ID : 0
Format : MPEG-4 Visual
Format profile : Advanced Simple@L5
Format settings, BVOP : 1
Format settings, QPel : No
Format settings, GMC : No warppoints
Format settings, Matrix : Custom
Codec ID : XVID
Codec ID/Hint : XviD
Duration : 1h 27mn
Bit rate : 1 008 Kbps
Width : 528 pixels
Height : 400 pixels
Display aspect ratio : 4:3
Frame rate : 25.000 fps
Color space : YUV
Chroma subsampling : 4:2:0
Bit depth : 8 bits
Scan type : Progressive
Compression mode : Lossy
Bits/(Pixel*Frame) : 0.191
Stream size : 630 MiB (83%)
Writing library : XviD 1.2.0.dev47 (UTC 2006-11-01)
Audio
ID : 1
Format : AC-3
Format/Info : Audio Coding 3
Mode extension : CM (complete main)
Format settings, Endianness : Big
Codec ID : 2000
Duration : 1h 27mn
Bit rate mode : Constant
Bit rate : 192 Kbps
Channel(s) : 2 channels
Channel positions : Front: L R
Sampling rate : 48.0 KHz
Bit depth : 16 bits
Compression mode : Lossy
Stream size : 120 MiB (16%)
Alignment : Split accross interleaves
Interleave, duration : 40 ms (1.00 video frame)
Interleave, preload duration : 500 ms

To download the content you need:
1. Download and install torrent client [for Windows] or for mobile system
2. Click on [Download]
Attention.
If the test YOU are NOT a ROBOT - does not work, then You are using an outdated browser.
Install the current browser and click on [Download]

Do not work with Yandex browser. Uploading files to them is erroneous.
Security: torrent client is allowed by Kaspersky.

[en.asmlocator.ru].t4167.torrent 
Torrent: Registered [ 2015-11-30 05:45 ] · 0A7DA36794278B779F35E7DB0ACE858432A2D032

Download .torrent

Download

15 KB

Status: checked
Completed: 0 times
Size: 756 MB
terms.php
[Profile] [PM]
Display posts:    
Reply to topic

Current time is: 10-Jul 13:12

All times are UTC ± 0



You cannot post new topics in this forum
You cannot reply to topics in this forum
You cannot edit your posts in this forum
You cannot delete your posts in this forum
You cannot vote in polls in this forum
You cannot attach files in this forum
You can download files in this forum
Верим фактам, а не вранью Путина! Факт, что Правительство ведёт Россию к истреблению.
Так как численность населения падает, даже не смотря на приток эмигрантов!
Русская нация вымирает и вырождается, смешиваясь с эмигрантами!
Факт, что военных и граждан предприятий заставляют голосовать за партию Единая Россия и Путина
ПОД СТРАХОМ УВОЛЬНЕНИЯ!
Нам не нужно Правительство, блокирующее личную жизнь, интернет, нарушающее сохранность данных.
Все эти действия финансируются за счёт народа!