Пусть танцуют белые медведи / Lad isbjørnene danse (Биргер Ларсен / Birger Larsen) [1990, Дания, драма, DVDRip] VO + Sub Rus + Original Dan

Reply to topic
DL-List and Torrent activity
Size:  1.57 GB   |    Registered:  4 years 4 months   |    Completed:  0 times

Seeder not seen: 3 years 5 months

 
   
 
 
Author Message

star21 ®

Gender: Female

Longevity: 4 years 4 months

Posts: 551945

Location: Екатеринбург

Post 30-Nov-2015 05:52

[Quote]

Пусть танцуют белые медведи / Lad isbjørnene danse
Страна: Дания
Жанр: драма
Год выпуска: 1990
Продолжительность: 01:26:20
Перевод: Одноголосый закадровый
Cубтитры: русские, датские
Оригинальная аудиодорожка: датский
Режиссер: Биргер Ларсен / Birger Larsen
В ролях: Андерс Скоубю, Томми Кентер, Бирте Нойманн, Пауль Хюттель, Лаура Драсбек, Хаким Белман Якобсен, Кристине Хорн, Стиг Хоффмайер, Хенрик Ларсен, Хелле Фагралид
Описание: 12-летний Лассе мечтает стать велогонщиком. Он не может похвастаться успехами в учебе, но в школе у него много друзей. Его жизнь круто меняется, когда родители разводятся. Отец, обожающий своего сына, уходит в себя. Мать забирает мальчика с собой и переезжает к преуспевающему зубному врачу Хильдингу. Отчим не безуспешно пытается перевоспитать Лассе, повысить его интерес к учёбе. Сумеет ли Лассе сохранить себя, свои интересы и ценности или будет жить по предначертанному для него шаблону?
Доп. информация: Фильм взят отсюда
Сэмпл: http://multi-up.com/1070983
Качество видео: DVDRip
Формат видео: AVI
Видео: 720x416 (1.73:1), 25 fps, XviD build 50 ~2211 kbps avg, 0.29 bit/pixel
Аудио 1: 48 kHz, AC3 Dolby Digital, 2/0 (L,R) ch, ~192.00 kbps avg(Русский)
Аудио 2: 48 kHz, AC3 Dolby Digital, 2/0 (L,R) ch, ~192.00 kbps avg(Датский)
Формат субтитров: softsub (SRT)
Доп. информация о субтитрах: Русские внешние (adelstein_s), датские

MediaInfo

Общее
Полное имя : F:\С моей озвучкой\Пусть танцуют белые медведи\Lad_isbjoernene_danse.avi
Формат : AVI
Формат/Информация : Audio Video Interleave
Размер файла : 1,57 Гбайт
Продолжительность : 1 ч. 26 м.
Общий поток : 2611 Кбит/сек
Программа кодирования : VirtualDubModRus 1.5.10.2 (build 2542/release)
Библиотека кодирования : VirtualDubMod build 2542/release
Видео
Идентификатор : 0
Формат : MPEG-4 Visual
Профиль формата : Advanced Simple@L5
Параметр BVOP формата : 2
Параметр QPel формата : Нет
Параметр GMC формата : Без точки перехода
Параметр матрицы формата : Default (MPEG)
Идентификатор кодека : XVID
Идентификатор кодека/Подсказка : XviD
Продолжительность : 1 ч. 26 м.
Битрейт : 2213 Кбит/сек
Ширина : 720 пикселей
Высота : 416 пикселей
Соотношение сторон : 1,731
Частота кадров : 25,000 кадров/сек
Цветовое пространство : YUV
Субдискретизация насыщенности : 4:2:0
Битовая глубина : 8 бит
Тип развёртки : Прогрессивная
Метод сжатия : С потерями
Бит/(Пиксели*Кадры) : 0.295
Размер потока : 1,33 Гбайт (85%)
Библиотека кодирования : XviD 1.2.1 (UTC 2008-12-04)
Аудио #1
Идентификатор : 1
Формат : AC-3
Формат/Информация : Audio Coding 3
Расширение режима : CM (complete main)
Параметр Endianness формата : Big
Идентификатор кодека : 2000
Продолжительность : 1 ч. 26 м.
Вид битрейта : Постоянный
Битрейт : 192 Кбит/сек
Каналы : 2 канала
Расположение каналов : Front: L R
Частота : 48,0 КГц
Битовая глубина : 16 бит
Метод сжатия : С потерями
Размер потока : 119 Мбайт (7%)
Выравнивание : Разделение по промежуткам
Продолжительность промежутка : 40 мс. (1,00 видеокадр)
Время предзагрузки промежутка : 500 мс.
Аудио #2
Идентификатор : 2
Формат : AC-3
Формат/Информация : Audio Coding 3
Расширение режима : CM (complete main)
Параметр Endianness формата : Big
Идентификатор кодека : 2000
Продолжительность : 1 ч. 26 м.
Вид битрейта : Постоянный
Битрейт : 192 Кбит/сек
Каналы : 2 канала
Расположение каналов : Front: L R
Частота : 48,0 КГц
Битовая глубина : 16 бит
Метод сжатия : С потерями
Размер потока : 119 Мбайт (7%)
Выравнивание : Разделение по промежуткам
Продолжительность промежутка : 40 мс. (1,00 видеокадр)
Время предзагрузки промежутка : 500 мс.

Скриншоты

To download the content you need:
1. Download and install torrent client [for Windows] or for mobile system
2. Click on [Download]
Attention.
If the test YOU are NOT a ROBOT - does not work, then You are using an outdated browser.
Install the current browser and click on [Download]

Do not work with Yandex browser. Uploading files to them is erroneous.
Security: torrent client is allowed by Kaspersky.

[en.asmlocator.ru].t4165.torrent 
Torrent: Registered [ 2015-11-30 05:45 ] · F30B0A96A805854EB5547A307EED8F07AD70B0E0

Download .torrent

Download

16 KB

Status: checked
Completed: 0 times
Size: 1.57 GB
terms.php
[Profile] [PM]
Display posts:    
Reply to topic

Current time is: 04-Apr 14:12

All times are UTC ± 0



You cannot post new topics in this forum
You cannot reply to topics in this forum
You cannot edit your posts in this forum
You cannot delete your posts in this forum
You cannot vote in polls in this forum
You cannot attach files in this forum
You can download files in this forum
Верим фактам, а не вранью Путина! Факт, что Правительство ведёт Россию к истреблению.
Так как численность населения падает, даже не смотря на приток эмигрантов!
Русская нация вымирает и вырождается, смешиваясь с эмигрантами!
Факт, что военных и граждан предприятий заставляют голосовать за партию Единая Россия и Путина
ПОД СТРАХОМ УВОЛЬНЕНИЯ!
Нам не нужно Правительство, блокирующее личную жизнь, интернет, нарушающее сохранность данных.
Все эти действия финансируются за счёт народа!