Принц из Пеннсильвании / The Prince Of Pennsylvania (Рон Нисванер / Ron Nyswaner) [1988, США, Комедия, драма, VHSRip] [FullScreen] AVO (Алексей Михалев)

Reply to topic
DL-List and Torrent activity
Size:  1.37 GB   |    Registered:  4 years 4 months   |    Completed:  0 times

Seeder not seen: Never

 
   
 
 
Author Message

star21 ®

Gender: Female

Longevity: 4 years 4 months

Posts: 551945

Location: Екатеринбург

Post 30-Nov-2015 05:52

[Quote]

Принц из Пеннсильвании / The Prince Of Pennsylvania
[FullScreen]
Страна: США
Жанр: Комедия, драма
Год выпуска: 1988
Продолжительность: 01:30:44
Перевод: Авторский (одноголосый закадровый) Алексей Михалев
Cубтитры: нет
Режиссер: Рон Нисванер / Ron Nyswaner
В ролях: Фред Уорд, Киану Ривз, Бонни Беделиа, Эми Мэдиган, Джей О. Сэндерс, Трейси Эллис, Джозеф Де Лиси, Лоурен Кэмп, Деметрия Меллот
Описание: История жесткого вхождения подростка во взрослую жизнь представлена в виде молодежной комедия, в которую вкраплены отчетливые драматические нотки, может быть, и не покажется кому-то особенно смешной, но авторам фильма не откажешь в желании вызвать зрительские симпатии по отношению к своим героям. Молодой парень Руперт называет себя 'принцем из Пенсильвании'. Как известно, точность - вежливость королей, и, поэтому нашему герою до 'трона' еще расти и расти: Руперт всегда и повсюду опаздывает. По утверждению его матери Пэмелы, души не чающей в своем отпрыске, он даже родился на три недели позже, чем должен был. Отец Руперта Гэри - шахтер, работающий на одном из местных рудников, вечно недовольный то поведением сына, то его прической, то 'предметом' его страсти Карлой, пожилой женщины-хиппи, которая на энное количество лет старше Руперта. Вот и приходится молодому парню постоянно выяснять отношения с родителями...
Доп. информация: Оцифровка VHS (личный архив) и получение VHSRip alenavova
Эксклюзив для rutracker.org. При размещении данного релиза на других сайтах ссылка на автора alenavova обязательна.

Релиз
Сэмпл: https://yadi.sk/i/D4dOfW0sjhfG4
Качество видео: VHSRip
Формат видео: AVI
Видео: 704x528 (1.33:1), 25 fps, XviD build 50 ~1955 kbps avg, 0.21 bit/pixel
Аудио: 48 kHz, AC3 Dolby Digital, 2/0 (L,R) ch, ~192 kbps

MediaInfo

Принц из Пеннсильвании - The Prince Of Pennsylvania (by alenavova).avi
Format : AVI
Format/Info : Audio Video Interleave
File size : 1.37 GiB
Duration : 1h 30mn
Overall bit rate : 2 158 Kbps
Movie name : Принц из Пеннсильвании - The Prince Of Pennsylvania (by alenavova)
Director : by alenavova
Writing application : VirtualDubMod 1.5.10.3 | www.virtualdub-fr.org || (build 2550/release)
Copyright : Edich2
Comment : RuTracker.org
Video
ID : 0
Format : MPEG-4 Visual
Format profile : Advanced Simple@L5
Format settings, BVOP : 1
Format settings, QPel : No
Format settings, GMC : No warppoints
Format settings, Matrix : Default (MPEG)
Codec ID : XVID
Codec ID/Hint : XviD
Duration : 1h 30mn
Bit rate : 1 956 Kbps
Width : 704 pixels
Height : 528 pixels
Display aspect ratio : 4:3
Frame rate : 25.000 fps
Color space : YUV
Chroma subsampling : 4:2:0
Bit depth : 8 bits
Scan type : Progressive
Compression mode : Lossy
Bits/(Pixel*Frame) : 0.210
Stream size : 1.24 GiB (91%)
Writing library : XviD 1.2.1 (UTC 2008-12-04)
Audio
ID : 1
Format : AC-3
Format/Info : Audio Coding 3
Mode extension : CM (complete main)
Format settings, Endianness : Big
Codec ID : 2000
Duration : 1h 30mn
Bit rate mode : Constant
Bit rate : 192 Kbps
Channel(s) : 2 channels
Channel positions : Front: L R
Sampling rate : 48.0 KHz
Bit depth : 16 bits
Compression mode : Lossy
Stream size : 125 MiB (9%)
Alignment : Split accross interleaves
Interleave, duration : 40 ms (1.00 video frame)
Interleave, preload duration : 500 ms

Скриншоты


To download the content you need:
1. Download and install torrent client [for Windows] or for mobile system
2. Click on [Download]
Attention.
If the test YOU are NOT a ROBOT - does not work, then You are using an outdated browser.
Install the current browser and click on [Download]

Do not work with Yandex browser. Uploading files to them is erroneous.
Security: torrent client is allowed by Kaspersky.

[en.asmlocator.ru].t4164.torrent 
Torrent: Registered [ 2015-11-30 05:45 ] · 0AC4072CD05675828F062F9DEE45988282563AB7

Download .torrent

Download

14 KB

Status: checked
Completed: 0 times
Size: 1.37 GB
terms.php
[Profile] [PM]
Display posts:    
Reply to topic

Current time is: 05-Apr 03:24

All times are UTC ± 0



You cannot post new topics in this forum
You cannot reply to topics in this forum
You cannot edit your posts in this forum
You cannot delete your posts in this forum
You cannot vote in polls in this forum
You cannot attach files in this forum
You can download files in this forum
Верим фактам, а не вранью Путина! Факт, что Правительство ведёт Россию к истреблению.
Так как численность населения падает, даже не смотря на приток эмигрантов!
Русская нация вымирает и вырождается, смешиваясь с эмигрантами!
Факт, что военных и граждан предприятий заставляют голосовать за партию Единая Россия и Путина
ПОД СТРАХОМ УВОЛЬНЕНИЯ!
Нам не нужно Правительство, блокирующее личную жизнь, интернет, нарушающее сохранность данных.
Все эти действия финансируются за счёт народа!