Космонавты / Space Men (Антонио Маргерити / Antonio Margheriti) [1960, Италия, фантастика, DVDRip] VO (Slavnus)

Reply to topic
DL-List and Torrent activity
Size:  1.45 GB   |    Registered:  4 years 4 months   |    Completed:  0 times

Seeder not seen: 2 years 3 months

 
   
 
 
Author Message

star21 ®

Gender: Female

Longevity: 4 years 4 months

Posts: 551945

Location: Екатеринбург

Post 30-Nov-2015 05:52

[Quote]

Космонавты / Space Men
Страна: Италия
Жанр: фантастика
Год выпуска: 1960
Продолжительность: 01:25:03
Перевод фильма: Annie Phoenix+Statuslux
Озвучание: Одноголосый закадровый - Slavnus
Cубтитры: русские
Оригинальная аудиодорожка: есть
Режиссер: Антонио Маргерити / Antonio Margheriti
В ролях: Рик Ван Наттер, Арчи Сэвадж, Ален Дижон, Франко Фантазия
Описание: Будущее, завоевание космоса становится действительностью. Космические спутники, движущиеся вокруг Земли, и Человеческие базы на других планетах Солнечной системы, открывают путь к исследователям новых миров.
Рэя Петерсона, молодого репортера посылают на космическую станцию BZ-88, чтобы написать статью о "Космонавтах", людях, что живут в космосе на борту космических кораблей. Там, он обнаруживает, что Альфа 2, межзвездным космическим кораблем с фотонным двигателем, после смерти всей команды, теперь управляет только компьютер, и тот летит к Земле с риском столкновения.
Доп. информация: представлены полная версия фильма и полный перевод - впервые
Сэмпл: http://sendfile.su/1164164
Качество: DVDRip
Формат: MKV
Видео: x264, 2045 кбит/с, 720x396, 25 к/с, crf=17
Аудио 1: Русский ЛО (AC3, 2 ch, 192 Кбит/с)
Аудио 2: Итальянский (AC3, 2 ch, 192 Кбит/с)
Субтитры : Русские (Annie Phoenix + Statuslux), английские

MediaInfo

GeneralUnique ID                                : 198206821965348642538614714784449952139 (0x951D3ECFF1EDFDA69DB2E8E5A6B9F98B)Complete name                            : M:\SpaceDust\Space-Men (1960).mkvFormat                                   : MatroskaFormat version                           : Version 4 / Version 2File size                                : 1.45 GiBDuration                                 : 1h 25mnOverall bit rate                         : 2 439 KbpsEncoded date                             : UTC 2015-10-13 13:20:54Writing application                      : mkvmerge v7.8.0 ('River Man') 32bit built on Mar 27 2015 16:18:02Writing library                          : libebml v1.3.1 + libmatroska v1.4.2DURATION                                 : 01:24:48.824000000NUMBER_OF_FRAMES                         : 1037NUMBER_OF_BYTES                          : 37485_STATISTICS_WRITING_APP                  : mkvmerge v7.8.0 ('River Man') 32bit built on Mar 27 2015 16:18:02_STATISTICS_WRITING_DATE_UTC             : 2015-10-13 13:20:54_STATISTICS_TAGS                         : BPS DURATION NUMBER_OF_FRAMES NUMBER_OF_BYTES
VideoID : 1Format : AVCFormat/Info : Advanced Video CodecFormat profile : High@L4.1Format settings, CABAC : YesFormat settings, ReFrames : 10 framesCodec ID : V_MPEG4/ISO/AVCDuration : 1h 25mnBit rate : 2 045 KbpsWidth : 720 pixelsHeight : 396 pixelsDisplay aspect ratio : 16:9Frame rate mode : ConstantFrame rate : 25.000 fpsColor space : YUVChroma subsampling : 4:2:0Bit depth : 8 bitsScan type : ProgressiveBits/(Pixel*Frame) : 0.287Stream size : 1.20 GiB (82%)Writing library : x264 core 130 r2273 b3065e6Encoding settings : cabac=1 / ref=10 / deblock=1:-2:-2 / analyse=0x3:0x133 / me=umh / subme=11 / psy=1 / psy_rd=0.99:0.14 / mixed_ref=1 / me_range=24 / chroma_me=1 / trellis=2 / 8x8dct=1 / cqm=0 / deadzone=21,11 / fast_pskip=1 / chroma_qp_offset=-3 / threads=6 / lookahead_threads=1 / sliced_threads=0 / nr=0 / decimate=1 / interlaced=0 / bluray_compat=0 / constrained_intra=0 / bframes=10 / b_pyramid=2 / b_adapt=2 / b_bias=0 / direct=3 / weightb=1 / open_gop=0 / weightp=2 / keyint=240 / keyint_min=24 / scenecut=40 / intra_refresh=0 / rc_lookahead=60 / rc=2pass / mbtree=1 / bitrate=2045 / ratetol=1.0 / qcomp=0.63 / qpmin=0 / qpmax=69 / qpstep=4 / cplxblur=20.0 / qblur=0.5 / ip_ratio=1.25 / aq=1:0.90Default : YesForced : NoColor primaries : BT.601 PALTransfer characteristics : BT.470 System B, BT.470 System GMatrix coefficients : BT.601
Audio #1ID : 2Format : AC-3Format/Info : Audio Coding 3Mode extension : CM (complete main)Format settings, Endianness : BigCodec ID : A_AC3Duration : 1h 25mnBit rate mode : ConstantBit rate : 192 KbpsChannel(s) : 2 channelsChannel positions : Front: L RSampling rate : 48.0 KHzBit depth : 16 bitsCompression mode : LossyStream size : 117 MiB (8%)Title : Русский ЛО (Slavnus)Language : RussianDefault : YesForced : Yes
Audio #2ID : 3Format : AC-3Format/Info : Audio Coding 3Mode extension : CM (complete main)Format settings, Endianness : BigCodec ID : A_AC3Duration : 1h 25mnBit rate mode : ConstantBit rate : 192 KbpsChannel(s) : 2 channelsChannel positions : Front: L RSampling rate : 48.0 KHzBit depth : 16 bitsCompression mode : LossyStream size : 117 MiB (8%)Language : ItalianDefault : NoForced : No
Text #1ID : 4Format : VobSubCodec ID : S_VOBSUBCodec ID/Info : The same subtitle format used on DVDsTitle : Русский (Annie Phoenix+Statuslux)Language : RussianDefault : YesForced : No
Text #2ID : 5Format : VobSubCodec ID : S_VOBSUBCodec ID/Info : The same subtitle format used on DVDsTitle : Русский (Annie Phoenix+Statuslux)Language : RussianDefault : NoForced : No
Text #3ID : 6Format : UTF-8Codec ID : S_TEXT/UTF8Codec ID/Info : UTF-8 Plain TextTitle : Русский (Annie Phoenix+Statuslux) srtDefault : NoForced : No
Text #4ID : 7Format : UTF-8Codec ID : S_TEXT/UTF8Codec ID/Info : UTF-8 Plain TextLanguage : EnglishDefault : NoForced : No
Menu00:05:40.800 : en:00:05:40.80000:10:38.400 : en:00:10:38.40000:17:02.880 : en:00:17:02.88000:23:52.320 : en:00:23:52.32000:29:18.240 : en:00:29:18.24000:36:24.960 : en:00:36:24.96000:42:31.200 : en:00:42:31.20000:47:20.160 : en:00:47:20.16000:54:30.240 : en:00:54:30.24001:01:31.200 : en:01:01:31.20001:11:33.600 : en:01:11:33.60001:25:15.800 : en:01:25:15.80001:25:16.200 : en:01:25:16.200

Скриншоты

To download the content you need:
1. Download and install torrent client [for Windows] or for mobile system
2. Click on [Download]
Attention.
If the test YOU are NOT a ROBOT - does not work, then You are using an outdated browser.
Install the current browser and click on [Download]

Do not work with Yandex browser. Uploading files to them is erroneous.
Security: torrent client is allowed by Kaspersky.

[en.asmlocator.ru].t4163.torrent 
Torrent: Registered [ 2015-11-30 05:45 ] · 7FE797B4D7BA9F05A2C8BB550E8A2CDDEB26FCC4

Download .torrent

Download

15 KB

Status: checked
Completed: 0 times
Size: 1.45 GB
terms.php
[Profile] [PM]
Display posts:    
Reply to topic

Current time is: 31-Mar 16:40

All times are UTC ± 0



You cannot post new topics in this forum
You cannot reply to topics in this forum
You cannot edit your posts in this forum
You cannot delete your posts in this forum
You cannot vote in polls in this forum
You cannot attach files in this forum
You can download files in this forum
Верим фактам, а не вранью Путина! Факт, что Правительство ведёт Россию к истреблению.
Так как численность населения падает, даже не смотря на приток эмигрантов!
Русская нация вымирает и вырождается, смешиваясь с эмигрантами!
Факт, что военных и граждан предприятий заставляют голосовать за партию Единая Россия и Путина
ПОД СТРАХОМ УВОЛЬНЕНИЯ!
Нам не нужно Правительство, блокирующее личную жизнь, интернет, нарушающее сохранность данных.
Все эти действия финансируются за счёт народа!