Покоритель Луны / Завоевание Луны / Conqueror of the Moon / Conquistador de la Luna (Рожелио А. Гонзалез / Rogelio A. González) [1960, Мексика, комедия, фантастика, DVDRip] VO + Sub Rus + Original Spa

Reply to topic
DL-List and Torrent activity
Size:  1.45 GB   |    Registered:  4 years 4 months   |    Completed:  0 times

Seeder not seen: 5 months 21 day

 
   
 
 
Author Message

star21 ®

Gender: Female

Longevity: 4 years 5 months

Posts: 551945

Location: Екатеринбург

Post 30-Nov-2015 05:52

[Quote]

Покоритель Луны / Завоевание Луны / Conqueror of the Moon / Conquistador de la Luna
Страна: Мексика
Жанр: комедия, фантастика
Год выпуска: 1960
Продолжительность: 01:18:28
Перевод: Одноголосый закадровый den904
Cубтитры: есть, русские от Владимир Антипов
Оригинальная аудиодорожка: есть, испанский
Режиссер: Рожелио А. Гонзалез / Rogelio A. González
В ролях: Антонио Эспино, Ана Луиза Пелуфо, Андрес Солер, Оскар Ортиз Де Пинедо, Рамиро Гамбоа, Альберто Педре, Алисия Морено, Алехандро Рейна, Викторио Бланко
Описание: Электрик Бартоло перевозит на ракете дочь профессора Абундио на Луну. Там их захватывают существа с Марса под преводительством Великого мозга, мозг влюбляется в Эсталу и желает уничтожить Землю, взорвав бомбу!
Качество: DVDRip
Формат: MKV
Видео: AVC, 720x540, 4:3, 1987 Kbps, 23.976 fps
Аудио (русский): AC-3, 192 Kbps, 48 KHz, 2 channels
Аудио (испанский): AC-3, 192 Kbps, 48 KHz, 2 channels
Сэмпл: http://sendfile.su/1164170
Сравнение скриншотов с - http://screenshotcomparison.com/comparison/147051/

MediaInfo

GeneralUnique ID                                : 200837944688817156978376338553979226505 (0x9717FB2D9962DDF6825DC6E137BF4989)Complete name                            : M:\SpaceDust\Conquistador de la Luna (1960).mkvFormat                                   : MatroskaFormat version                           : Version 4 / Version 2File size                                : 1.45 GiBDuration                                 : 1h 18mnOverall bit rate                         : 2 627 KbpsMovie name                               : Завоевание Луны / Conquistador de la luna / 1960Encoded date                             : UTC 2015-10-13 14:10:37Writing application                      : mkvmerge v8.0.0 ('Til The Day That I Die') 64bitWriting library                          : libebml v1.3.1 + libmatroska v1.4.2Attachements                             : VTS_01_1_001.mkv.encoding.logDURATION                                 : 01:17:59.760000000NUMBER_OF_FRAMES                         : 684NUMBER_OF_BYTES                          : 28326_STATISTICS_WRITING_APP                  : mkvmerge v8.0.0 ('Til The Day That I Die') 64bit_STATISTICS_WRITING_DATE_UTC             : 2015-10-13 14:10:37_STATISTICS_TAGS                         : BPS DURATION NUMBER_OF_FRAMES NUMBER_OF_BYTES
VideoID : 1Format : AVCFormat/Info : Advanced Video CodecFormat profile : High@L4.1Format settings, CABAC : YesFormat settings, ReFrames : 10 framesCodec ID : V_MPEG4/ISO/AVCDuration : 1h 18mnBit rate : 2 237 KbpsWidth : 720 pixelsHeight : 540 pixelsDisplay aspect ratio : 4:3Frame rate mode : ConstantFrame rate : 23.976 fpsColor space : YUVChroma subsampling : 4:2:0Bit depth : 8 bitsScan type : ProgressiveBits/(Pixel*Frame) : 0.240Stream size : 1.21 GiB (83%)Writing library : x264 core 130 r2273 b3065e6Encoding settings : cabac=1 / ref=10 / deblock=1:-1:-2 / analyse=0x3:0x133 / me=umh / subme=11 / psy=1 / psy_rd=0.98:0.14 / mixed_ref=1 / me_range=24 / chroma_me=1 / trellis=2 / 8x8dct=1 / cqm=0 / deadzone=21,11 / fast_pskip=1 / chroma_qp_offset=-3 / threads=6 / lookahead_threads=1 / sliced_threads=0 / nr=0 / decimate=1 / interlaced=0 / bluray_compat=0 / constrained_intra=0 / bframes=10 / b_pyramid=2 / b_adapt=2 / b_bias=0 / direct=3 / weightb=1 / open_gop=0 / weightp=2 / keyint=210 / keyint_min=21 / scenecut=40 / intra_refresh=0 / rc_lookahead=60 / rc=2pass / mbtree=1 / bitrate=2237 / ratetol=1.0 / qcomp=0.60 / qpmin=0 / qpmax=69 / qpstep=4 / cplxblur=20.0 / qblur=0.5 / ip_ratio=1.25 / aq=1:0.90Default : YesForced : NoColor primaries : BT.601 NTSCTransfer characteristics : BT.601Matrix coefficients : BT.601
Audio #1ID : 2Format : AC-3Format/Info : Audio Coding 3Mode extension : CM (complete main)Format settings, Endianness : BigCodec ID : A_AC3Duration : 1h 18mnBit rate mode : ConstantBit rate : 192 KbpsChannel(s) : 1 channelChannel positions : Front: CSampling rate : 48.0 KHzBit depth : 16 bitsCompression mode : LossyStream size : 108 MiB (7%)Title : Русский ЛО (den904)Language : RussianDefault : YesForced : Yes
Audio #2ID : 3Format : AC-3Format/Info : Audio Coding 3Mode extension : CM (complete main)Format settings, Endianness : BigCodec ID : A_AC3Duration : 1h 18mnBit rate mode : ConstantBit rate : 192 KbpsChannel(s) : 2 channelsChannel positions : Front: L RSampling rate : 48.0 KHzBit depth : 16 bitsCompression mode : LossyStream size : 108 MiB (7%)Language : SpanishDefault : NoForced : No
Text #1ID : 4Format : VobSubMuxing mode : zlibCodec ID : S_VOBSUBCodec ID/Info : The same subtitle format used on DVDsLanguage : RussianDefault : YesForced : No
Text #2ID : 5Format : UTF-8Codec ID : S_TEXT/UTF8Codec ID/Info : UTF-8 Plain TextLanguage : RussianDefault : NoForced : No
Text #3ID : 6Format : VobSubMuxing mode : zlibCodec ID : S_VOBSUBCodec ID/Info : The same subtitle format used on DVDsDefault : NoForced : No
Text #4ID : 7Format : UTF-8Codec ID : S_TEXT/UTF8Codec ID/Info : UTF-8 Plain TextLanguage : EnglishDefault : NoForced : No
Menu00:05:00.600 : en:00:05:00.60000:10:00.700 : en:00:10:00.70000:15:01.067 : en:00:15:01.06700:20:01.667 : en:00:20:01.66700:25:01.700 : en:00:25:01.70000:30:01.800 : en:00:30:01.80000:35:02.367 : en:00:35:02.36700:39:58.930 : en:00:39:58.93000:40:02.466 : en:00:40:02.46600:45:03.134 : en:00:45:03.13400:50:03.234 : en:00:50:03.23400:55:03.500 : en:00:55:03.50001:00:03.566 : en:01:00:03.56601:05:04.000 : en:01:05:04.00001:10:04.601 : en:01:10:04.60101:15:04.634 : en:01:15:04.63401:18:49.230 : en:01:18:49.230

Скриншоты

To download the content you need:
1. Download and install torrent client [for Windows] or for mobile system
2. Click on [Download]
Attention.
If the test YOU are NOT a ROBOT - does not work, then You are using an outdated browser.
Install the current browser and click on [Download]

Do not work with Yandex browser. Uploading files to them is erroneous.
Security: torrent client is allowed by Kaspersky.

[en.asmlocator.ru].t4161.torrent 
Torrent: Registered [ 2015-11-30 05:45 ] · 5F6117A245AFADE52F75EC53694C68B4B7F55A96

Download .torrent

Download

15 KB

Status: checked
Completed: 0 times
Size: 1.45 GB
terms.php
[Profile] [PM]
Display posts:    
Reply to topic

Current time is: 10-Apr 08:16

All times are UTC ± 0



You cannot post new topics in this forum
You cannot reply to topics in this forum
You cannot edit your posts in this forum
You cannot delete your posts in this forum
You cannot vote in polls in this forum
You cannot attach files in this forum
You can download files in this forum
Верим фактам, а не вранью Путина! Факт, что Правительство ведёт Россию к истреблению.
Так как численность населения падает, даже не смотря на приток эмигрантов!
Русская нация вымирает и вырождается, смешиваясь с эмигрантами!
Факт, что военных и граждан предприятий заставляют голосовать за партию Единая Россия и Путина
ПОД СТРАХОМ УВОЛЬНЕНИЯ!
Нам не нужно Правительство, блокирующее личную жизнь, интернет, нарушающее сохранность данных.
Все эти действия финансируются за счёт народа!